Lego DC Comics Super Heroes: The Flash (2018)

Posted By: Tavaz
1080p (FullHD) / BDRip IMDb
Lego DC Comics Super Heroes: The Flash (2018)

Lego DC Comics Super Heroes: The Flash (2018)
BDRip | MKV | 1920x1080 | English / Turkish | H264 @ 7603 kbps | DTS @ 1509 kbps | 1 h 18 min | 5.10 GiB
Subtitles: English
Genre: Adventure, Animation, Comedy, Science Fiction, Family

In LEGO DC Super Heroes: The Flash, Reverse-Flash manipulates the Speed Force to put the Flash into a time loop that forces him to relive the same day over and over again—with progressively disastrous results, including losing his powers and being fired by the Justice League. The Flash must find a way to restore time to its original path and finally apprehend his worst enemy before all is lost for the Flash…and the world!

1bf02efe82994237b8fd205499440f38.mkv (5.1 GB)



General
Unique ID : 215994635231442924346258191869315800991 (0xA27F0DB78B80BB0FD8BD2DB0F71E5F9F)
Complete name : ./1bf02efe82994237b8fd205499440f38.mkv
Format : Matroska
Format version : Version 4 / Version 2
File size : 5.10 GiB
Duration : 1 h 18 min
Overall bit rate : 9 307 kb/s
Encoded date : UTC 2018-04-09 14:01:30
Writing application : mkvmerge v22.0.0 ('At The End Of The World') 64-bit
Writing library : libebml v1.3.5 + libmatroska v1.4.8

Video
ID : 1
Format : AVC
Format/Info : Advanced Video Codec
Format profile : High@L4.1
Format settings : CABAC / 3 Ref Frames
Format settings, CABAC : Yes
Format settings, RefFrames : 3 frames
Codec ID : V_MPEG4/ISO/AVC
Duration : 1 h 18 min
Bit rate : 7 603 kb/s
Width : 1 920 pixels
Height : 1 080 pixels
Display aspect ratio : 16:9
Frame rate mode : Constant
Frame rate : 23.976 (24000/1001) FPS
Color space : YUV
Chroma subsampling : 4:2:0
Bit depth : 8 bits
Scan type : Progressive
Bits/(Pixel*Frame) : 0.153
Stream size : 4.17 GiB (82%)
Title : PRoDJi
Writing library : x264 core 155 r2901 7d0ff22
Encoding settings : cabac=1 / ref=3 / deblock=1:0:0 / analyse=0x3:0x113 / me=umh / subme=7 / psy=1 / psy_rd=1.00:0.00 / mixed_ref=1 / me_range=24 / chroma_me=1 / trellis=2 / 8x8dct=1 / cqm=2 / deadzone=21,11 / fast_pskip=1 / chroma_qp_offset=-5 / threads=12 / lookahead_threads=2 / sliced_threads=0 / nr=0 / decimate=1 / interlaced=0 / bluray_compat=0 / constrained_intra=0 / bframes=3 / b_pyramid=1 / b_adapt=2 / b_bias=2 / direct=3 / weightb=1 / open_gop=0 / weightp=2 / keyint=230 / keyint_min=22 / scenecut=40 / intra_refresh=0 / rc_lookahead=40 / rc=2pass / mbtree=1 / bitrate=7603 / ratetol=1.0 / qcomp=0.60 / qpmin=10 / qpmax=41 / qpstep=4 / cplxblur=20.0 / qblur=0.5 / ip_ratio=1.40 / aq=1:1.00
Language : English
Default : Yes
Forced : No

Audio #1
ID : 2
Format : DTS
Format/Info : Digital Theater Systems
Mode : 16
Format settings, Endianness : Big
Codec ID : A_DTS
Duration : 1 h 18 min
Bit rate mode : Constant
Bit rate : 1 509 kb/s
Channel(s) : 6 channels
Channel positions : Front: L C R, Side: L R, LFE
Sampling rate : 48.0 kHz
Frame rate : 93.750 FPS (512 SPF)
Bit depth : 24 bits
Compression mode : Lossy
Stream size : 847 MiB (16%)
Title : English DTS@1509Kbps 6 chnls
Language : English
Default : Yes
Forced : No

Audio #2
ID : 3
Format : AC-3
Format/Info : Audio Coding 3
Format settings, Endianness : Big
Codec ID : A_AC3
Duration : 1 h 18 min
Bit rate mode : Constant
Bit rate : 192 kb/s
Channel(s) : 2 channels
Channel positions : Front: L R
Sampling rate : 48.0 kHz
Frame rate : 31.250 FPS (1536 SPF)
Bit depth : 16 bits
Compression mode : Lossy
Stream size : 108 MiB (2%)
Title : 192Kbps 2 chnls AC3 Turkish
Language : Turkish
Service kind : Complete Main
Default : No
Forced : No

Text
ID : 4
Format : UTF-8
Codec ID : S_TEXT/UTF8
Codec ID/Info : UTF-8 Plain Text
Duration : 1 h 17 min
Bit rate : 72 b/s
Count of elements : 1299
Stream size : 41.3 KiB (0%)
Language : English
Default : Yes
Forced : No

Menu
00:00:00.000 : en:Chapter 1
00:10:31.172 : en:Chapter 2
00:20:55.671 : en:Chapter 3
00:34:27.482 : en:Chapter 4
00:44:50.980 : en:Chapter 5
00:51:53.652 : en:Chapter 6
01:00:27.415 : en:Chapter 7
01:07:35.176 : en:Chapter 8
01:15:23.602 : en:Chapter 9





Lego DC Comics Super Heroes: The Flash (2018)


Lego DC Comics Super Heroes: The Flash (2018)


Lego DC Comics Super Heroes: The Flash (2018)


Lego DC Comics Super Heroes: The Flash (2018)


Lego DC Comics Super Heroes: The Flash (2018)