Lego DC Comics Super Heroes: The Flash (2018)

Posted By: Without
SD / WEB-DL IMDb
Lego DC Comics Super Heroes: The Flash (2018)

Lego DC Comics Super Heroes: The Flash (2018)
HDRip | AVI | 720x400 | XviD@1305 kb/s | English AC3@384 kb/s | 6 channels | 1 h 18 min | 953 MB
Genre: Animation

The morning sun shines on the jewel of the Metropolis skyline, The Daily Planet building. But when The Joker decides this building needs a renovation, it's time to sound the Trouble Alert because all bricks are about to break loose! The Justice League leaps into action but as the battle is brewing against The Joker something goes haywire with The Flash's powers causing him to get caught in a repeating time loop and even stranger is the yellow clad Reverse Flash taunting him at every turn! It will take all of Flash's speed, a little magic and the helping hands and paws of the Justice League's new recruits The Atom, Krypto the Super Dog and Ace the Bat Hound to break the cycle and save Metropolis!



General
Lego DC Comics Super Heroes The Flash.2018.HDRip.XviD.AC3-EVO.avi
Format : AVI
Format/Info : Audio Video Interleave
File size : 953 MiB
Duration : 1 h 18 min
Overall bit rate : 1 699 kb/s
Writing library : VirtualDub build 32593/release

Video
ID : 0
Format : MPEG-4 Visual
Format profile : Advanced Simple@L5
Format settings, BVOP : 2
Format settings, QPel : No
Format settings, GMC : No warppoints
Format settings, Matrix : Default (H.263)
Muxing mode : Packed bitstream
Codec ID : XVID
Codec ID/Hint : XviD
Duration : 1 h 18 min
Bit rate : 1 305 kb/s
Width : 720 pixels
Height : 400 pixels
Display aspect ratio : 16:9
Frame rate : 23.976 (24000/1001) FPS
Color space : YUV
Chroma subsampling : 4:2:0
Bit depth : 8 bits
Scan type : Progressive
Compression mode : Lossy
Bits/(Pixel*Frame) : 0.189
Stream size : 732 MiB (77%)
Writing library : XviD 66

Audio
ID : 1
Format : AC-3
Format/Info : Audio Coding 3
Mode extension : CM (complete main)
Format settings, Endianness : Big
Codec ID : 2000
Duration : 1 h 18 min
Bit rate mode : Constant
Bit rate : 384 kb/s
Channel(s) : 6 channels
Channel positions : Front: L C R, Side: L R, LFE
Sampling rate : 48.0 kHz
Frame rate : 31.250 FPS (1536 spf)
Bit depth : 16 bits
Compression mode : Lossy
Stream size : 215 MiB (23%)
Alignment : Aligned on interleaves
Interleave, duration : 42 ms (1.00 video frame)
Interleave, preload duration : 512 ms


HDRip Screenshots

Lego DC Comics Super Heroes: The Flash (2018)

Lego DC Comics Super Heroes: The Flash (2018)

Lego DC Comics Super Heroes: The Flash (2018)


Come Visit My Blog (•‿•)