London Has Fallen (2016)

Posted By: JohnSmith
London Has Fallen (2016)

London Has Fallen (2016)
TS | AVI / XviD@1800 kb/s | 720x368 | 1h 32mn | 1.33 GB | English: AC3, 256 kb/s (2 ch)
Genre: Action | Crime | Thriller

In London for the Prime Minister's funeral, Mike Banning discovers a plot to assassinate all the attending world leaders.




General
Complete name : D:\Downloads\London.Has.Fallen.2016.HD-TS.XVID.AC3.HQ.Hive-CM8\London.Has.Fallen.2016.HD-TS.XVID.AC3.HQ.Hive-CM8.avi
Format : AVI
Format/Info : Audio Video Interleave
File size : 1.33 GiB
Duration : 1h 32mn
Overall bit rate : 2 068 Kbps
Writing application : Nandub v1.0rc2
Writing library : Nandub build 1853/release

Video
ID : 0
Format : MPEG-4 Visual
Format profile : Advanced Simple@L5
Format settings, BVOP : 2
Format settings, QPel : Yes
Format settings, GMC : No warppoints
Format settings, Matrix : Default (H.263)
Muxing mode : Packed bitstream
Codec ID : XVID
Codec ID/Hint : XviD
Duration : 1h 32mn
Bit rate : 1 800 Kbps
Width : 720 pixels
Height : 368 pixels
Display aspect ratio : 1.957
Frame rate : 29.970 fps
Color space : YUV
Chroma subsampling : 4:2:0
Bit depth : 8 bits
Scan type : Progressive
Compression mode : Lossy
Bits/(Pixel*Frame) : 0.227
Stream size : 1.16 GiB (87%)
Writing library : XviD 1.2.1 (UTC 2008-12-04)

Audio
ID : 1
Format : AC-3
Format/Info : Audio Coding 3
Mode extension : CM (complete main)
Format settings, Endianness : Big
Codec ID : 2000
Duration : 1h 32mn
Bit rate mode : Constant
Bit rate : 256 Kbps
Channel(s) : 2 channels
Channel positions : Front: L R
Sampling rate : 48.0 KHz
Compression mode : Lossy
Stream size : 169 MiB (12%)
Alignment : Split accross interleaves
Interleave, duration : 33 ms (1.00 video frame)
Interleave, preload duratio : 500 ms


Screenshots

London Has Fallen (2016)

London Has Fallen (2016)

London Has Fallen (2016)