Subcategories

London Has Fallen (2016)

Posted By: JohnSmith
London Has Fallen (2016)

London Has Fallen (2016)
HDRip | AVI / XviD@1819 kb/s | 720x304 | 1h 38mn | 1.39 GB | English: AC3, 192 kb/s (2 ch)
WEB-DL 720p | MKV / AVC@4134 kb/s | 1280x536 | 1h 38mn | 3.03 GB | English: AC3, 192 kb/s (2 ch)
WEB-DL 1080p | MKV / AVC@4298 kb/s | 1920x804 | 1h 38mn | 3.15 GB | English: AC3, 192 kb/s (2 ch)
Genre: Action | Crime | Thriller

In London for the Prime Minister's funeral, Mike Banning discovers a plot to assassinate all the attending world leaders.




General
Complete name : D:\Downloads\London.Has.Fallen.2016.HDRip.XviD.AC3-EVO\London.Has.Fallen.2016.HDRip.XviD.AC3-EVO.avi
Format : AVI
Format/Info : Audio Video Interleave
Format profile : OpenDML
Format settings : rec
File size : 1.39 GiB
Duration : 1h 38mn
Overall bit rate : 2 017 Kbps
Writing application : AVI-Mux GUI 1.17.8.3, Feb 16 201019:42:50

Video
ID : 0
Format : MPEG-4 Visual
Codec ID : XVID
Codec ID/Hint : XviD
Duration : 1h 38mn
Source duration : 6s 500ms
Bit rate : 1 819 bps
Width : 720 pixels
Height : 304 pixels
Display aspect ratio : 2.35:1
Frame rate : 24.000 fps
Color space : YUV
Chroma subsampling : 4:2:0
Compression mode : Lossy
Bits/(Pixel*Frame) : 0.000
Stream size : 976 KiB (0%)

Audio
ID : 1
Format : AC-3
Format/Info : Audio Coding 3
Codec ID : 2000
Duration : 1h 38mn
Source duration : 6s 720ms
Bit rate mode : Constant
Bit rate : 192 Kbps
Channel(s) : 2 channels
Sampling rate : 48.0 KHz
Compression mode : Lossy
Stream size : 158 KiB (0%)
Alignment : Aligned on interleaves
Interleave, duration : 62 ms (1.49 video frame)
Interleave, preload duratio : 192 ms
Title : AC3



General
Unique ID : 240714016300038662414248523769009247425 (0xB517D54CC3ED7819BEE65D71458194C1)
Complete name : D:\Downloads\London.Has.Fallen.2016.720p.WEB-DL.X264.AC3-EVO\London.Has.Fallen.2016.720p.WEB-DL.X264.AC3-EVO.mkv
Format : Matroska
Format version : Version 4 / Version 2
File size : 3.03 GiB
Duration : 1h 38mn
Overall bit rate : 4 414 Kbps
Movie name : EVO
Encoded date : UTC 2016-05-13 12:14:03
Writing application : mkvmerge v6.7.0 ('Back to the Ground') 64bit built on Jan 8 2014 15:10:52
Writing library : libebml v1.3.0 + libmatroska v1.4.1

Video
ID : 2
Format : AVC
Format/Info : Advanced Video Codec
Format profile : Main@L3.1
Format settings, CABAC : No
Format settings, ReFrames : 2 frames
Codec ID : V_MPEG4/ISO/AVC
Duration : 1h 38mn
Bit rate : 4 134 Kbps
Width : 1 280 pixels
Height : 536 pixels
Display aspect ratio : 2.40:1
Frame rate mode : Constant
Frame rate : 24.000 fps
Color space : YUV
Chroma subsampling : 4:2:0
Bit depth : 8 bits
Scan type : Progressive
Bits/(Pixel*Frame) : 0.251
Stream size : 2.84 GiB (94%)
Language : English
Default : Yes
Forced : No
Color range : Limited
Color primaries : BT.709
Transfer characteristics : BT.709
Matrix coefficients : BT.709

Audio
ID : 1
Format : AC-3
Format/Info : Audio Coding 3
Mode extension : CM (complete main)
Format settings, Endianness : Big
Codec ID : A_AC3
Duration : 1h 38mn
Bit rate mode : Constant
Bit rate : 192 Kbps
Channel(s) : 2 channels
Channel positions : Front: L R
Sampling rate : 48.0 KHz
Compression mode : Lossy
Stream size : 135 MiB (4%)
Language : English
Default : Yes
Forced : No



General
Unique ID : 210634721251495941779646446527188395511 (0x9E76C58E09F4A630829A5686B9C565F7)
Complete name : D:\Downloads\London.Has.Fallen.2016.1080p.WEB-DL.H264.AC3-EVO\London.Has.Fallen.2016.1080p.WEB-DL.H264.AC3-EVO.mkv
Format : Matroska
Format version : Version 4 / Version 2
File size : 3.15 GiB
Duration : 1h 38mn
Overall bit rate : 4 581 Kbps
Encoded date : UTC 2016-05-13 11:39:49
Writing application : mkvmerge v6.7.0 ('Back to the Ground') 64bit built on Jan 8 2014 15:10:52
Writing library : libebml v1.3.0 + libmatroska v1.4.1

Video
ID : 2
Format : AVC
Format/Info : Advanced Video Codec
Format profile : High@L4
Format settings, CABAC : Yes
Format settings, ReFrames : 5 frames
Format settings, GOP : N=1
Codec ID : V_MPEG4/ISO/AVC
Duration : 1h 38mn
Bit rate : 4 298 Kbps
Width : 1 920 pixels
Height : 804 pixels
Display aspect ratio : 2.40:1
Frame rate mode : Constant
Frame rate : 24.000 fps
Color space : YUV
Chroma subsampling : 4:2:0
Bit depth : 8 bits
Scan type : Progressive
Bits/(Pixel*Frame) : 0.116
Stream size : 2.95 GiB (94%)
Language : English
Default : Yes
Forced : No
Color range : Limited
Color primaries : BT.709
Transfer characteristics : BT.709
Matrix coefficients : BT.709

Audio
ID : 1
Format : AC-3
Format/Info : Audio Coding 3
Mode extension : CM (complete main)
Format settings, Endianness : Big
Codec ID : A_AC3
Duration : 1h 38mn
Bit rate mode : Constant
Bit rate : 192 Kbps
Channel(s) : 2 channels
Channel positions : Front: L R
Sampling rate : 48.0 KHz
Compression mode : Lossy
Stream size : 135 MiB (4%)
Language : English
Default : Yes
Forced : No


Screenshots HDRip

London Has Fallen (2016)

London Has Fallen (2016)

London Has Fallen (2016)


Screenshots WEB-DL 720p

London Has Fallen (2016)

London Has Fallen (2016)

London Has Fallen (2016)


Screenshots WEB-DL 1080p

London Has Fallen (2016)

London Has Fallen (2016)

London Has Fallen (2016)