London Has Fallen (2016)

Posted By: Without
London Has Fallen (2016)

London Has Fallen (2016)
BD-Remux | MKV | 1920×1080 | AVC@33.1 Mbps | English DTS@4590 Kbps (8 ch)
Subs: English, Spanish, French | 1h 38mn | 26.0 GB
Genre: Action, Crime, Drama

In London for the Prime Minister's funeral, Mike Banning discovers a plot to assassinate all the attending world leaders.



General
Unique ID : 187132862714453067978203988068308960259 (0x8CC87A77A3EEEC068536B22872E14403)
Complete name : London.Has.Fallen.2016.REMUX.1080p.BluRay.AVC.DTS-HD.MA7.1-iFT\London.Has.Fallen.2016.REMUX.1080p.BluRay.AVC.DTS-HD.MA7.1-iFT.mkv
Format : Matroska
Format version : Version 4 / Version 2
File size : 26.0 GiB
Duration : 1h 38mn
Overall bit rate mode : Variable
Overall bit rate : 37.8 Mbps
Encoded date : UTC 2016-06-05 03:25:24
Writing application : mkvmerge v8.9.0 ('Father Daughter') 64bit
Writing library : libebml v1.3.3 + libmatroska v1.4.4

Video
ID : 1
Format : AVC
Format/Info : Advanced Video Codec
Format profile : High@L4.1
Format settings, CABAC : Yes
Format settings, ReFrames : 4 frames
Codec ID : V_MPEG4/ISO/AVC
Duration : 1h 38mn
Bit rate mode : Variable
Bit rate : 33.1 Mbps
Maximum bit rate : 35.0 Mbps
Width : 1 920 pixels
Height : 1 080 pixels
Display aspect ratio : 16:9
Frame rate mode : Constant
Frame rate : 23.976 (24000/1001) fps
Color space : YUV
Chroma subsampling : 4:2:0
Bit depth : 8 bits
Scan type : Progressive
Bits/(Pixel*Frame) : 0.667
Stream size : 22.9 GiB (88%)
Default : Yes
Forced : No

Audio
ID : 2
Format : DTS
Format/Info : Digital Theater Systems
Format profile : X / MA / Core
Mode : 16
Format settings, Endianness : Big
Codec ID : A_DTS
Duration : 1h 38mn
Bit rate mode : Variable / Variable / Constant
Bit rate : 4 590 Kbps / 4 590 Kbps / 1 509 Kbps
Channel(s) : Object Based / 8 channels / 6 channels
Channel positions : Object Based / Front: L C R, Side: L R, Back: L R, LFE / Front: L C R, Side: L R, LFE
Sampling rate : / 48.0 KHz / 48.0 KHz
Frame rate : 93.750 fps (512 spf)
Bit depth : / 24 bits / 24 bits
Compression mode : / Lossless / Lossy
Stream size : 3.16 GiB (12%)
Default : Yes
Forced : No

Text #1
ID : 3
Format : PGS
Muxing mode : zlib
Codec ID : S_HDMV/PGS
Codec ID/Info : Picture based subtitle format used on BDs/HD-DVDs
Duration : 1h 31mn
Bit rate : 11.1 Kbps
Count of elements : 2376
Stream size : 7.24 MiB (0%)
Default : Yes
Forced : No

Text #2
ID : 4
Format : PGS
Muxing mode : zlib
Codec ID : S_HDMV/PGS
Codec ID/Info : Picture based subtitle format used on BDs/HD-DVDs
Duration : 1h 38mn
Bit rate : 8 578 bps
Count of elements : 2008
Stream size : 6.05 MiB (0%)
Default : No
Forced : No

Text #3
ID : 5
Format : PGS
Muxing mode : zlib
Codec ID : S_HDMV/PGS
Codec ID/Info : Picture based subtitle format used on BDs/HD-DVDs
Duration : 1h 38mn
Bit rate : 8 420 bps
Count of elements : 2008
Stream size : 5.94 MiB (0%)
Default : No
Forced : No

Text #4
ID : 6
Format : PGS
Muxing mode : zlib
Codec ID : S_HDMV/PGS
Codec ID/Info : Picture based subtitle format used on BDs/HD-DVDs
Duration : 1h 38mn
Bit rate : 471 bps
Count of elements : 92
Stream size : 340 KiB (0%)
Default : No
Forced : No

Menu
00:00:00.000 : en:Chapter 01
00:05:23.281 : en:Chapter 02
00:10:12.987 : en:Chapter 03
00:15:53.202 : en:Chapter 04
00:20:13.545 : en:Chapter 05
00:23:41.461 : en:Chapter 06
00:28:51.229 : en:Chapter 07
00:33:30.383 : en:Chapter 08
00:39:37.208 : en:Chapter 09
00:45:05.285 : en:Chapter 10
00:49:43.105 : en:Chapter 11
00:53:26.953 : en:Chapter 12
00:58:40.391 : en:Chapter 13
01:02:42.467 : en:Chapter 14
01:08:22.598 : en:Chapter 15
01:12:51.075 : en:Chapter 16
01:17:35.400 : en:Chapter 17
01:20:58.270 : en:Chapter 18
01:26:11.499 : en:Chapter 19
01:31:42.246 : en:Chapter 20
01:38:41.665 : en:Chapter 21


Screenshots

London Has Fallen (2016)

London Has Fallen (2016)

London Has Fallen (2016)

London Has Fallen (2016)

London Has Fallen (2016)

London Has Fallen (2016)


Come Visit My Blog (•‿•)


Single Link

London.Has.Fallen.2016.REMUX.1080p.BluRay.AVC.DTS-HD.MA7.1-iFT.mkv

2 Parts:

London.Has.Fallen.2016.REMUX.1080p.BluRay.AVC.DTS-HD.MA7.1-iFT.part1.rar
London.Has.Fallen.2016.REMUX.1080p.BluRay.AVC.DTS-HD.MA7.1-iFT.part2.rar

900 MB Links

London.Has.Fallen.2016.REMUX.1080p.BluRay.AVC.DTS-HD.MA7.1-iFT.part01.rar
London.Has.Fallen.2016.REMUX.1080p.BluRay.AVC.DTS-HD.MA7.1-iFT.part02.rar
London.Has.Fallen.2016.REMUX.1080p.BluRay.AVC.DTS-HD.MA7.1-iFT.part03.rar
London.Has.Fallen.2016.REMUX.1080p.BluRay.AVC.DTS-HD.MA7.1-iFT.part04.rar
London.Has.Fallen.2016.REMUX.1080p.BluRay.AVC.DTS-HD.MA7.1-iFT.part05.rar
London.Has.Fallen.2016.REMUX.1080p.BluRay.AVC.DTS-HD.MA7.1-iFT.part06.rar
London.Has.Fallen.2016.REMUX.1080p.BluRay.AVC.DTS-HD.MA7.1-iFT.part07.rar
London.Has.Fallen.2016.REMUX.1080p.BluRay.AVC.DTS-HD.MA7.1-iFT.part08.rar
London.Has.Fallen.2016.REMUX.1080p.BluRay.AVC.DTS-HD.MA7.1-iFT.part09.rar
London.Has.Fallen.2016.REMUX.1080p.BluRay.AVC.DTS-HD.MA7.1-iFT.part10.rar
London.Has.Fallen.2016.REMUX.1080p.BluRay.AVC.DTS-HD.MA7.1-iFT.part11.rar
London.Has.Fallen.2016.REMUX.1080p.BluRay.AVC.DTS-HD.MA7.1-iFT.part12.rar
London.Has.Fallen.2016.REMUX.1080p.BluRay.AVC.DTS-HD.MA7.1-iFT.part13.rar
London.Has.Fallen.2016.REMUX.1080p.BluRay.AVC.DTS-HD.MA7.1-iFT.part14.rar
London.Has.Fallen.2016.REMUX.1080p.BluRay.AVC.DTS-HD.MA7.1-iFT.part15.rar
London.Has.Fallen.2016.REMUX.1080p.BluRay.AVC.DTS-HD.MA7.1-iFT.part16.rar
London.Has.Fallen.2016.REMUX.1080p.BluRay.AVC.DTS-HD.MA7.1-iFT.part17.rar
London.Has.Fallen.2016.REMUX.1080p.BluRay.AVC.DTS-HD.MA7.1-iFT.part18.rar
London.Has.Fallen.2016.REMUX.1080p.BluRay.AVC.DTS-HD.MA7.1-iFT.part19.rar
London.Has.Fallen.2016.REMUX.1080p.BluRay.AVC.DTS-HD.MA7.1-iFT.part20.rar
London.Has.Fallen.2016.REMUX.1080p.BluRay.AVC.DTS-HD.MA7.1-iFT.part21.rar
London.Has.Fallen.2016.REMUX.1080p.BluRay.AVC.DTS-HD.MA7.1-iFT.part22.rar
London.Has.Fallen.2016.REMUX.1080p.BluRay.AVC.DTS-HD.MA7.1-iFT.part23.rar
London.Has.Fallen.2016.REMUX.1080p.BluRay.AVC.DTS-HD.MA7.1-iFT.part24.rar
London.Has.Fallen.2016.REMUX.1080p.BluRay.AVC.DTS-HD.MA7.1-iFT.part25.rar
London.Has.Fallen.2016.REMUX.1080p.BluRay.AVC.DTS-HD.MA7.1-iFT.part26.rar
London.Has.Fallen.2016.REMUX.1080p.BluRay.AVC.DTS-HD.MA7.1-iFT.part27.rar
London.Has.Fallen.2016.REMUX.1080p.BluRay.AVC.DTS-HD.MA7.1-iFT.part28.rar
London.Has.Fallen.2016.REMUX.1080p.BluRay.AVC.DTS-HD.MA7.1-iFT.part29.rar
London.Has.Fallen.2016.REMUX.1080p.BluRay.AVC.DTS-HD.MA7.1-iFT.part30.rar