Looking Glass (2018)

Posted By: JohnSmith
720p (HD) / BDRip IMDb
Looking Glass (2018)

Looking Glass (2018)
BDRip | MKV / AVC@1970 kb/s | 848x480 | 1h 43mn | 1.71 GB | Italian (dubbed): AC3, 384 kb/s (6 ch)
BDRip 720p | MKV / AVC@4330 kb/s | 1280x720 | 1h 43mn | 3.41 GB | Italian (dubbed): AC3, 384 kb/s (6 ch)
Genre: Thriller

Ray e Maggie comprano un motel su una strada fuori mano. Un giorno, Ray scopre uno spazio segreto da dove può vedere cosa accade in ognuna delle stanze, inclusa quella che viene costantemente richiesta e in cui succedono alcune cose pazzesche. Quando ci scappa anche il morto, l'arrivo di un fastidioso poliziotto mette sottosopra la vita di Ray.




General
Unique ID : 211848183119937516718020277091592675065 (0x9F6079D81633E4828E4A24725F6D9EF9)
Complete name : A:\Looking.Glass.2018.iTA.Bluray.480p.x264-CYBER.mkv
Format : Matroska
Format version : Version 4 / Version 2
File size : 1.71 GiB
Duration : 1 h 43 min
Overall bit rate : 2 354 kb/s
Encoded date : UTC 2018-04-02 15:12:25
Writing application : mkvmerge v8.3.0 ('Over the Horizon') 64bit
Writing library : libebml v1.3.1 + libmatroska v1.4.2

Video
ID : 1
Format : AVC
Format/Info : Advanced Video Codec
Format profile : High@L4.1
Format settings, CABAC : Yes
Format settings, ReFrames : 5 frames
Codec ID : V_MPEG4/ISO/AVC
Duration : 1 h 43 min
Bit rate : 1 972 kb/s
Width : 848 pixels
Height : 480 pixels
Display aspect ratio : 16:9
Frame rate mode : Constant
Frame rate : 23.976 (24000/1001) FPS
Color space : YUV
Chroma subsampling : 4:2:0
Bit depth : 8 bits
Scan type : Progressive
Bits/(Pixel*Frame) : 0.202
Stream size : 1.43 GiB (84%)
Writing library : x264 core 155 r2901 7d0ff22
Language : English
Default : Yes
Forced : No

Audio
ID : 2
Format : AC-3
Format/Info : Audio Coding 3
Format settings, Endianness : Big
Codec ID : A_AC3
Duration : 1 h 43 min
Bit rate mode : Constant
Bit rate : 384 kb/s
Channel(s) : 6 channels
Channel positions : Front: L C R, Side: L R, LFE
Sampling rate : 48.0 kHz
Frame rate : 31.250 FPS (1536 spf)
Bit depth : 16 bits
Compression mode : Lossy
Stream size : 285 MiB (16%)
Title : iTunes RESYNC
Language : Italian
Service kind : Complete Main
Default : Yes
Forced : No





General
Unique ID : 193178022637338329489685296470663086195 (0x9154BBDCE7682A87BD4A4D698F57C073)
Complete name : A:\Looking.Glass.2018.iTA.Bluray.720p.x264-CYBER.mkv
Format : Matroska
Format version : Version 4 / Version 2
File size : 3.41 GiB
Duration : 1 h 43 min
Overall bit rate : 4 708 kb/s
Encoded date : UTC 2018-04-02 15:12:03
Writing application : mkvmerge v8.3.0 ('Over the Horizon') 64bit
Writing library : libebml v1.3.1 + libmatroska v1.4.2

Video
ID : 1
Format : AVC
Format/Info : Advanced Video Codec
Format profile : High@L4.1
Format settings, CABAC : Yes
Format settings, ReFrames : 5 frames
Codec ID : V_MPEG4/ISO/AVC
Duration : 1 h 43 min
Bit rate : 4 329 kb/s
Width : 1 280 pixels
Height : 720 pixels
Display aspect ratio : 16:9
Frame rate mode : Constant
Frame rate : 23.976 (24000/1001) FPS
Color space : YUV
Chroma subsampling : 4:2:0
Bit depth : 8 bits
Scan type : Progressive
Bits/(Pixel*Frame) : 0.196
Stream size : 3.13 GiB (92%)
Writing library : x264 core 155 r2901 7d0ff22
Language : English
Default : Yes
Forced : No

Audio
ID : 2
Format : AC-3
Format/Info : Audio Coding 3
Format settings, Endianness : Big
Codec ID : A_AC3
Duration : 1 h 43 min
Bit rate mode : Constant
Bit rate : 384 kb/s
Channel(s) : 6 channels
Channel positions : Front: L C R, Side: L R, LFE
Sampling rate : 48.0 kHz
Frame rate : 31.250 FPS (1536 spf)
Bit depth : 16 bits
Compression mode : Lossy
Stream size : 285 MiB (8%)
Title : iTunes RESYNC
Language : Italian
Service kind : Complete Main
Default : Yes
Forced : No




Screenshots BDRip

Looking Glass (2018)

Looking Glass (2018)

Looking Glass (2018)


Screenshots BDRip 720p

Looking Glass (2018)

Looking Glass (2018)

Looking Glass (2018)