Subcategories

Looking For Mr. Right (2014)

Posted By: Without
Looking For Mr. Right (2014)

Looking For Mr Right (2014)
HDTV | AVI | 640×352 | XviD@1027 Kbps | English MP3@128 Kbps | 2 channels | 01:23:40 | 699 MB
Genre: Family

Writer Annie Butler (Lancaster) is miserable after she suffers a bad breakup while facing her dead-end job writing user manuals instead of manuscripts. Deciding to envision the life she wants in hopes of making it a reality, Annie writes My George, a fiction novel depicting her dream romance with a perfect imaginary guy named George. She is stunned to receive a letter from high-powered literary agent Della Hendershot (Fox), who wants to publish the book and promote Annie as a debut author at a huge bookseller’s expo-alongside George. When Annie …



General
Complete name : lfmr2014.avi
Format : AVI
Format/Info : Audio Video Interleave
File size : 700 MiB
Duration : 1h 23mn
Overall bit rate : 1 170 Kbps

Video
ID : 0
Format : MPEG-4 Visual
Format profile : Advanced Simple@L5
Format settings, BVOP : 2
Format settings, QPel : No
Format settings, GMC : No warppoints
Format settings, Matrix : Default (H.263)
Codec ID : XVID
Codec ID/Hint : XviD
Duration : 1h 23mn
Bit rate : 1 027 Kbps
Width : 640 pixels
Height : 352 pixels
Display aspect ratio : 16:9
Frame rate : 29.970 fps
Color space : YUV
Chroma subsampling : 4:2:0
Bit depth : 8 bits
Scan type : Progressive
Compression mode : Lossy
Bits/(Pixel*Frame) : 0.152
Stream size : 615 MiB (88%)
Writing library : XviD 1.2.1 (UTC 2008-12-04)

Audio
ID : 1
Format : MPEG Audio
Format version : Version 1
Format profile : Layer 3
Codec ID : 55
Codec ID/Hint : MP3
Duration : 1h 23mn
Source duration : 1h 23mn
Bit rate mode : Constant
Bit rate : 128 Kbps
Channel(s) : 2 channels
Sampling rate : 48.0 KHz
Compression mode : Lossy
Stream size : 76.6 MiB (11%)
Alignment : Split accross interleaves
Interleave, duration : 24 ms (0.72 video frame)


Screenshots

Looking For Mr. Right (2014)

Looking For Mr. Right (2014)

Looking For Mr. Right (2014)