Love on the Run (2015)

Posted By: Without
Love on the Run (2015)

Love on the Run (2015)
HDRip | AVI | 640x352 | XviD@1069 Kbps | English MP3@128 Kbps | 2 channels | 1h 20mn | 698 MB
Genre: Comedy

When Franny woke up this morning it was another day full of possibilities to have all her dreams come true. Her optimism can’t be silenced even when Rick takes her hostage while robbing a bank. He is, after all, the most gorgeous guy she’s ever seen in real life. Can she survive love-on-the-run with a bank robber and will her dreams come true?



General
Complete name : J:\Love.on.the.Run.2015.HDRip.XViD-ETRG\Love.on.the.Run.2015.HDRip.XViD-ETRG.avi
Format : AVI
Format/Info : Audio Video Interleave
File size : 699 MiB
Duration : 1h 20mn
Overall bit rate : 1 206 Kbps
Writing library : VirtualDub build 35491/release

Video
ID : 0
Format : MPEG-4 Visual
Format profile : Advanced Simple@L5
Format settings, BVOP : 2
Format settings, QPel : No
Format settings, GMC : No warppoints
Format settings, Matrix : Default (H.263)
Muxing mode : Packed bitstream
Codec ID : XVID
Codec ID/Hint : XviD
Duration : 1h 20mn
Bit rate : 1 069 Kbps
Width : 640 pixels
Height : 352 pixels
Display aspect ratio : 16:9
Frame rate : 23.976 (24000/1001) fps
Color space : YUV
Chroma subsampling : 4:2:0
Bit depth : 8 bits
Scan type : Progressive
Compression mode : Lossy
Bits/(Pixel*Frame) : 0.198
Stream size : 619 MiB (89%)
Writing library : XviD 64

Audio
ID : 1
Format : MPEG Audio
Format version : Version 1
Format profile : Layer 3
Mode : Joint stereo
Mode extension : MS Stereo
Codec ID : 55
Codec ID/Hint : MP3
Duration : 1h 20mn
Bit rate mode : Constant
Bit rate : 128 Kbps
Channel(s) : 2 channels
Sampling rate : 48.0 KHz
Compression mode : Lossy
Stream size : 74.1 MiB (11%)
Alignment : Split accross interleaves
Interleave, duration : 42 ms (1.00 video frame)
Interleave, preload duration : 500 ms
Writing library : LAME3.99r
Encoding settings : -m j -V 4 -q 3 -lowpass 17 -b 128


HDRip Screenshots

Love on the Run (2015)

Love on the Run (2015)

Love on the Run (2015)


Come Visit My Blog (•‿•)