My Sister's Keeper / Ma vie pour la tienne (2009)

Posted By: FenixN
My Sister's Keeper / Ma vie pour la tienne (2009)

My Sister's Keeper / Ma vie pour la tienne (2009)
DVDRip | AVI / XviD, 813 kb/s | 544x304 | 01:44:45 | French: MP3, 128 kb/s (2 ch) | 713 mb
Genre: Drama | USA

Une ancienne avocate reprend du service pour plaider sa cause et celle de son mari lorsque sa fille de 11 ans les attaque en justice pour demander son émancipation. La jeune fille leur reproche d'avoir été conçue dans le seul but de disposer d'un individu compatible génétiquement avec sa soeur rongée par le cancer, dans l'espoir qu'elle puisse prolonger la vie de celle-ci.

imdb: 7,4/10 (18 803 votes)

Format : AVI
Format/Info : Audio Video Interleave
File size : 713 MiB
Duration : 1h 44mn
Overall bit rate : 951 Kbps
Writing application : FairUse Wizard - http://fairusewizard.com
Writing library : The best and REALLY easy backup tool

Video
ID : 0
Format : MPEG-4 Visual
Format profile : Advanced Simple@L5
Format settings, BVOP : 1
Format settings, QPel : No
Format settings, GMC : No warppoints
Format settings, Matrix : Default (MPEG)
Muxing mode : Packed bitstream
Codec ID : XVID
Codec ID/Hint : XviD
Duration : 1h 44mn
Bit rate : 813 Kbps
Width : 544 pixels
Height : 304 pixels
Display aspect ratio : 16:9
Frame rate : 25.000 fps
Color space : YUV
Chroma subsampling : 4:2:0
Bit depth : 8 bits
Scan type : Progressive
Compression mode : Lossy
Bits/(Pixel*Frame) : 0.197
Stream size : 610 MiB (86%)
Writing library : XviD 1.2.0.dev47 (UTC 2006-11-01)

Audio
ID : 1
Format : MPEG Audio
Format version : Version 1
Format profile : Layer 3
Mode : Joint stereo
Mode extension : MS Stereo
Codec ID : 55
Codec ID/Hint : MP3
Duration : 1h 44mn
Bit rate mode : Constant
Bit rate : 128 Kbps
Channel(s) : 2 channels
Sampling rate : 48.0 KHz
Compression mode : Lossy
Stream size : 95.9 MiB (13%)
Alignment : Aligned on interleaves
Interleave, duration : 40 ms (1.00 video frame)
Interleave, preload duration : 504 ms
Writing library : LAME3.97
Encoding settings : -m j -V 4 -q 2 -lowpass 17 -b 128


screenshot
My Sister's Keeper / Ma vie pour la tienne (2009)

My Sister's Keeper / Ma vie pour la tienne (2009)

My Sister's Keeper / Ma vie pour la tienne (2009)


Welcome to the best movies collection (English, German, French language), best software, best eLearning video and many-many more: LINK
Do not forget to check my blog! Updated regularly!