Tags
Language
Tags

Mac and Me (1988)

Posted By: Tavaz
1080p (FullHD) / BDRip IMDb
Mac and Me (1988)

Mac and Me (1988)
BDRip | MOV | 1920x1044 | English | H264 @ 4235 kbps | AC-3 @ 224 kbps | 1 h 39 min | 3.10 GiB
Subtitles: English
Genre: Family, Fantasy, Science Fiction



4db8d70829ce2f465d320eb66e821994.mp4 (3.1 GB)



General
Complete name : ./4db8d70829ce2f465d320eb66e821994.mp4
Format : MPEG-4
Format profile : Base Media / Version 2
Codec ID : mp42 (mp42/isom/avc1)
File size : 3.10 GiB
Duration : 1 h 39 min
Overall bit rate mode : Variable
Overall bit rate : 4 468 kb/s
Movie name : Mac.and.Me.1988.1080p.BluRay.H264.AC3.DD2.0.Will1869
Encoded date : UTC 2020-05-24 15:32:38
Tagged date : UTC 2020-05-24 15:43:33
Writing application : DVDFab 11.0.4.2
Cover : Yes

Video
ID : 1
Format : AVC
Format/Info : Advanced Video Codec
Format profile : Main@L4
Format settings : CABAC / 2 Ref Frames
Format settings, CABAC : Yes
Format settings, RefFrames : 2 frames
Format settings, GOP : M=1, N=24
Codec ID : avc1
Codec ID/Info : Advanced Video Coding
Duration : 1 h 39 min
Bit rate mode : Variable
Bit rate : 4 235 kb/s
Maximum bit rate : 6 417 kb/s
Width : 1 920 pixels
Height : 1 044 pixels
Display aspect ratio : 1.85:1
Frame rate mode : Constant
Frame rate : 23.976 (24000/1001) FPS
Color space : YUV
Chroma subsampling : 4:2:0
Bit depth : 8 bits
Scan type : Progressive
Bits/(Pixel*Frame) : 0.088
Stream size : 2.94 GiB (95%)
Encoded date : UTC 2020-05-24 15:32:38
Tagged date : UTC 2020-05-24 15:43:33
Color primaries : BT.709
Transfer characteristics : BT.709
Matrix coefficients : BT.709

Audio
ID : 2
Format : AC-3
Format/Info : Audio Coding 3
Format settings, Endianness : Big
Codec ID : ac-3
Duration : 1 h 39 min
Bit rate mode : Constant
Bit rate : 224 kb/s
Channel(s) : 2 channels
Channel positions : Front: L R
Sampling rate : 48.0 kHz
Frame rate : 31.250 FPS (1536 SPF)
Bit depth : 16 bits
Compression mode : Lossy
Stream size : 159 MiB (5%)
Title : English (ac3 2.0)
Language : English
Service kind : Complete Main
Default : Yes
Alternate group : 1
Encoded date : UTC 2020-05-24 15:32:38
Tagged date : UTC 2020-05-24 15:43:33

Text
ID : 3
Format : VobSub
Codec ID : mp4s-E0
Codec ID/Info : The same subtitle format used on DVDs
Duration : 1 h 33 min
Bit rate mode : Variable
Bit rate : 7 384 b/s
Maximum bit rate : 3 102 Mb/s
Stream size : 4.94 MiB (0%)
Language : English
Default : Yes
Forced : No
Alternate group : 2
Encoded date : UTC 2020-05-24 15:32:38
Tagged date : UTC 2020-05-24 15:42:59





Mac and Me (1988)


Mac and Me (1988)


Mac and Me (1988)


Mac and Me (1988)


Mac and Me (1988)