Subcategories

Madre! (2017)

Posted By: JohnSmith
SD / WEB-DL IMDb
Madre! (2017)

Madre! / Mother! (2017)
HDRip MD | AVI / XviD@1655 kb/s | 720x304 | 2h 1mn | 1.52 GB | Italian (dubbed): MP3, 128 kb/s (2 ch)
Genre: Drama | Horror | Mystery

Una coppia vede la propria relazione messa alla prova quando degli ospiti non attesi arrivano nella loro abitazione, sconvolgendo la loro tranquilla esistenza.

IMDB - 3 nominations.



General
Complete name : A:\Madre.2017.iTALiAN.MD.WEBDL.XviD-iSTANCE.avi
Format : AVI
Format/Info : Audio Video Interleave
File size : 1.52 GiB
Duration : 2 h 1 min
Overall bit rate : 1 794 kb/s
Writing library : VirtualDub build 35491/release

Video
ID : 0
Format : MPEG-4 Visual
Format profile : Advanced Simple@L5
Format settings, BVOP : 2
Format settings, QPel : No
Format settings, GMC : No warppoints
Format settings, Matrix : Default (MPEG)
Muxing mode : Packed bitstream
Codec ID : XVID
Codec ID/Hint : XviD
Duration : 2 h 1 min
Bit rate : 1 657 kb/s
Width : 720 pixels
Height : 304 pixels
Display aspect ratio : 2.35:1
Frame rate : 23.976 (24000/1001) FPS
Color space : YUV
Chroma subsampling : 4:2:0
Bit depth : 8 bits
Scan type : Progressive
Compression mode : Lossy
Bits/(Pixel*Frame) : 0.316
Stream size : 1.41 GiB (92%)
Writing library : XviD 67

Audio
ID : 1
Format : MPEG Audio
Format version : Version 1
Format profile : Layer 3
Mode : Joint stereo
Mode extension : MS Stereo
Codec ID : 55
Codec ID/Hint : MP3
Duration : 2 h 1 min
Bit rate mode : Constant
Bit rate : 128 kb/s
Channel(s) : 2 channels
Sampling rate : 48.0 kHz
Compression mode : Lossy
Stream size : 111 MiB (7%)
Alignment : Split accross interleaves
Interleave, duration : 42 ms (1.00 video frame)
Interleave, preload duratio : 500 ms
Writing library : LAME3.99r
Encoding settings : -m j -V 4 -q 3 -lowpass 17 -b 128




Screenshots

Madre! (2017)

Madre! (2017)

Madre! (2017)