Channel 4 - Man Made Home Series 2 (2013)

Posted By: vivid23
Channel 4 - Man Made Home Series 2 (2013)

Channel 4 - Man Made Home Series 2 (2013)
PDTV | 832x468 | MP4/x264 @ 1803 Kbps | 4x47mn | Audio: English AAC 160 kbps, 2 channels | Subs: None | 4x663 MB
Genre: Documentary

Kevin McCloud returns with a new Man Made challenge. This time he's attempting to build his own beach getaway on the English coast, testing a basic hypothesis - is simple better? And is creating better than consuming? Kevin moves his entire shed to the sublime Somerset Jurassic coast. This stunning location brings fresh adventures for him as he transforms his beloved cabin into the beach home of his dreams while using locally available resources and other people's junk. Kevin uncovers inventive building materials in remarkable places and experiments with novel off-grid energy sources - all so that he can sit out on his porch as the sun goes down, listen to the sound of the crashing waves and sip a cocktail featuring his own home-made rum.

More info

Part 1:
Kevin salvages the oak ribs from a shipwrecked fishing boat to build a curvaceous, gravity-defying clifftop deck on which he can spend the summer al fresco. To light his seaside retreat, Kevin taps into an unusual energy supply residing in the waves, in the form of fish oil. And in a madcap dash to the local pub, Kevin hits the high seas with his Man Friday, Will Trickett, on a raft made from inflated sheepskin balloons. But between them and the perfect pint are the strong currents of the Bristol Channel.


Part 2:
Kevin builds a sun lounge for his beach hut, his own hammock to lie in and some lobster traps made out of old shopping trolleys to go fishing with. Kevin sets about doubling the floor space by building a beautiful, glistening sun lounge out of recycled windows culled from lorries and aeroplanes, coming up with a crafty design that floats the windows in mid air. Kevin also wants his own hammock to lie in and uses a massive anchor to build a giant-sized hammock that rotates, allowing him to chase the sun across the sky at the turn of a wheel. In search of more junk he can recycle, Kevin takes a dirty dive into London's oldest dock and discovers a haul of old shopping trolleys that he re-purposes into lobster pots.


Part 3:
It's the height of summer and Kevin McCloud's simple shed has already been transformed with the addition of a cliff top terrace and a sun room made from old lorry and airplane windows. Now Kevin plans to take his off-grid beach build to an entirely new level with a magnificent observation tower, three times higher than a double decker bus. Kevin also wants to enhance his cooking facilities and make an amazing barbecue by re-purposing a World War Two naval mine. Spectacularly, Kevin opts to form the barbecue by blasting the mine in half with a huge explosive charge.


Part 4:
As the nights draw in and the summer begins to fade, Kevin looks to add a final touch to his coastal retreat. With the main structure of the cabin finished, Kevin wants to improve his quality of life and introduce a few of life's little luxuries, with his very own solar powered hot water shower made from a repurposed telephone box and a sublime floating beach bar made largely from flotsam and jetsam found on his beach. And no holiday by the sea can be complete without ice cream. So Kevin churns his very own goats' milk ice cream featuring a seaweed sprinkles and caramel topping.


Video
ID : 1
Format : AVC
Format/Info : Advanced Video Codec
Format profile : High@L3.0
Format settings, CABAC : No
Format settings, ReFrames : 1 frame
Codec ID : avc1
Codec ID/Info : Advanced Video Coding
Duration : 47mn 5s
Bit rate mode : Variable
Bit rate : 1 803 Kbps
Width : 832 pixels
Height : 468 pixels
Display aspect ratio : 16:9
Frame rate mode : Constant
Frame rate : 25.000 fps
Color space : YUV
Chroma subsampling : 4:2:0
Bit depth : 8 bits
Scan type : Progressive
Bits/(Pixel*Frame) : 0.185
Stream size : 607 MiB (92%)
Encoded date : UTC 2013-10-13 22:37:27
Tagged date : UTC 2013-10-13 22:37:27

Audio
ID : 2
Format : AAC
Format/Info : Advanced Audio Codec
Format version : Version 4
Format profile : LC
Codec ID : 40
Duration : 47mn 5s
Bit rate mode : Variable
Bit rate : 160 Kbps
Channel(s) : 2 channels
Channel positions : Front: L R
Sampling rate : 48.0 KHz
Compression mode : Lossy
Stream size : 53.9 MiB (8%)
Encoded date : UTC 2013-10-13 22:37:27
Tagged date : UTC 2013-10-13 22:37:27


Channel 4 - Man Made Home Series 2 (2013)

Channel 4 - Man Made Home Series 2 (2013)



http://uploaded.net/file/edqujdwn/manmade_01.part1.rar
http://uploaded.net/file/bbv4luc7/manmade_01.part2.rar
http://uploaded.net/file/vfqzw8ne/manmade_02.part1.rar
http://uploaded.net/file/bk5phnge/manmade_02.part2.rar
http://uploaded.net/file/fwv3mf8v/manmade_03.part1.rar
http://uploaded.net/file/prwlcptz/manmade_03.part2.rar
http://uploaded.net/file/d69hlfv0/manmade_04.part1.rar
http://uploaded.net/file/og8k74uj/manmade_04.part2.rar

http://rapidgator.net/file/d216d0f8c2581e0809d39555c153421d/manmade_01.part1.rar
http://rapidgator.net/file/ba7336a6767011e2c5c079dca4cc1af7/manmade_01.part2.rar
http://rapidgator.net/file/0427a9a910dfad62dcf7310906728284/manmade_02.part1.rar
http://rapidgator.net/file/0789265a059fe3969a60b46a49fbd0fc/manmade_02.part2.rar
http://rapidgator.net/file/3cfc4890390ac25981e971cf6a06318e/manmade_03.part1.rar
http://rapidgator.net/file/9578cd246f408770abe3f0eba95023dd/manmade_03.part2.rar
http://rapidgator.net/file/e0c7af3f8f82215b64860a76fc4d11e7/manmade_04.part1.rar
http://rapidgator.net/file/6714606147fc1458508f541644fd8f81/manmade_04.part2.rar

http://turbobit.net/dzhy52fpron3/manmade_01.part1.rar.html
http://turbobit.net/bolgw0phfn36/manmade_01.part2.rar.html
http://turbobit.net/2rsgzcb6wr7u/manmade_02.part1.rar.html
http://turbobit.net/dtoemv12cgsf/manmade_02.part2.rar.html
http://turbobit.net/uizodj9ry7js/manmade_03.part1.rar.html
http://turbobit.net/clzlrky47oy0/manmade_03.part2.rar.html
http://turbobit.net/erk42ytlafuz/manmade_04.part1.rar.html
http://turbobit.net/bx0icwxa36sw/manmade_04.part2.rar.html