Mariah Carey's All I Want for Christmas Is You (2017)

Posted By: Without
Mariah Carey's All I Want for Christmas Is You (2017)

Mariah Carey's All I Want for Christmas Is You (2017)
WEB-DL 720p | MKV | 1280x716 | AVC@3941 kb/s | English AC3@384 kb/s
6 channels | 1 h 30 min | 2.79 GB
Genre: Animation, Comedy, Family

The film centers on young Mariah, a little girl who dreams of getting a dog for Christmas after seeing a puppy named Princess at the local pet store. To see if she's ready for the responsibility, Mariah is tasked with dog-sitting her uncle's crazy canine Jack, who upends the family's holiday preparations with his various shenanigans.



General
All.I.Want.for.Christmas.Is.You.2017.720p.WEB-DL.H264.AC3-EVO\All.I.Want.for.Christmas.Is.You.2017.720p.WEB-DL.H264.AC3-EVO.mkv
Format : Matroska
Format version : Version 4 / Version 2
File size : 2.79 GiB
Duration : 1 h 30 min
Overall bit rate : 4 413 kb/s
Movie name : EVO
Encoded date : UTC 2017-11-14 10:31:33
Writing application : mkvmerge v6.7.0 ('Back to the Ground') 64bit built on Jan 8 2014 15:10:52
Writing library : libebml v1.3.0 + libmatroska v1.4.1

Video
ID : 1
Format : AVC
Format/Info : Advanced Video Codec
Format profile : High@L3.1
Format settings, CABAC : No
Format settings, ReFrames : 2 frames
Codec ID : V_MPEG4/ISO/AVC
Duration : 1 h 30 min
Bit rate : 3 941 kb/s
Width : 1 280 pixels
Height : 716 pixels
Display aspect ratio : 16:9
Frame rate mode : Constant
Frame rate : 23.976 FPS
Color space : YUV
Chroma subsampling : 4:2:0
Bit depth : 8 bits
Scan type : Progressive
Bits/(Pixel*Frame) : 0.179
Stream size : 2.50 GiB (89%)
Language : English
Default : Yes
Forced : No
Color range : Limited
Color primaries : BT.709
Transfer characteristics : BT.709
Matrix coefficients : BT.709

Audio
ID : 2
Format : AC-3
Format/Info : Audio Coding 3
Mode extension : CM (complete main)
Format settings, Endianness : Big
Codec ID : A_AC3
Duration : 1 h 30 min
Bit rate mode : Constant
Bit rate : 384 kb/s
Channel(s) : 6 channels
Channel positions : Front: L C R, Side: L R, LFE
Sampling rate : 48.0 kHz
Frame rate : 31.250 FPS (1536 spf)
Bit depth : 16 bits
Compression mode : Lossy
Stream size : 249 MiB (9%)
Language : English
Default : Yes
Forced : No

Menu
00:00:00.000 : en:1
00:03:51.398 : en:2
00:09:12.135 : en:3
00:14:00.131 : en:4
00:19:02.850 : en:5
00:24:39.311 : en:6
00:29:43.406 : en:7
00:34:12.341 : en:8
00:39:07.427 : en:9
00:44:12.648 : en:10
00:48:19.895 : en:11
00:52:21.094 : en:12
00:57:13.970 : en:13
01:01:26.555 : en:14
01:03:19.334 : en:15
01:07:39.385 : en:16
01:10:45.320 : en:17
01:14:25.873 : en:18
01:20:43.584 : en:19
01:23:33.587 : en:20


WEB-DL 720p Screenshots

Mariah Carey's All I Want for Christmas Is You (2017)

Mariah Carey's All I Want for Christmas Is You (2017)

Mariah Carey's All I Want for Christmas Is You (2017)


Come Visit My Blog (•‿•)