Marshall (2017)

Posted By: JohnSmith
720p (HD) / BDRip IMDb
Marshall (2017)

Marshall (2017)
BDRip | MKV / AVC@1610 kb/s | 848x416 | 1h 58mn | 1.65 GB
Italian (dubbed): AC3, 384 kb/s (6 ch) | Subtitles: Italian (forced, full)
BDRip 720p | MKV / AVC@3610 kb/s | 1280x640 | 1h 58mn | 3.31 GB
Italian (dubbed): AC3, 384 kb/s (6 ch) | Subtitles: Italian (forced, full)
Genre: Biography | Drama

Thurgood Marshall, molto tempo prima della sua nomina alla Corte suprema degli Stati Uniti, è ancora un giovane avvocato quando, mentre la nazione è sull'orlo della Seconda guerra mondiale, viene mandato nel Connecticut a difendere un autista nero contro la sua ricca datrice di lavoro bianca in un processo per violenza sessuale e tentato omicidio, destinato a fare scandalo sui tabloid. In cerca di vittoria, Marshall viene affiancato da Samuel Friedman, un giovane avvocato ebreo alla sua prima esperienza in un processo.

IMDB - Nominated for 1 Oscar. Another 4 wins & 16 nominations.



General
Unique ID : 245022968819321720338804610471891595054 (0xB855B50FB957F0D7AD8E666A4CB06F2E)
Complete name : A:\Marshall.2017.iTA.Bluray.480p.x264-CYBER.mkv
Format : Matroska
Format version : Version 4 / Version 2
File size : 1.65 GiB
Duration : 1 h 58 min
Overall bit rate : 1 997 kb/s
Encoded date : UTC 2018-02-13 13:28:35
Writing application : mkvmerge v8.3.0 ('Over the Horizon') 64bit
Writing library : libebml v1.3.1 + libmatroska v1.4.2

Video
ID : 1
Format : AVC
Format/Info : Advanced Video Codec
Format profile : High@L4.1
Format settings, CABAC : Yes
Format settings, ReFrames : 5 frames
Codec ID : V_MPEG4/ISO/AVC
Duration : 1 h 58 min
Bit rate : 1 611 kb/s
Width : 848 pixels
Height : 416 pixels
Display aspect ratio : 2.000
Frame rate mode : Constant
Frame rate : 23.976 (24000/1001) FPS
Color space : YUV
Chroma subsampling : 4:2:0
Bit depth : 8 bits
Scan type : Progressive
Bits/(Pixel*Frame) : 0.190
Stream size : 1.33 GiB (81%)
Writing library : x264 core 152 r2851 ba24899
Language : English
Default : Yes
Forced : No

Audio
ID : 2
Format : AC-3
Format/Info : Audio Coding 3
Format settings, Endianness : Big
Codec ID : A_AC3
Duration : 1 h 58 min
Bit rate mode : Constant
Bit rate : 384 kb/s
Channel(s) : 6 channels
Channel positions : Front: L C R, Side: L R, LFE
Sampling rate : 48.0 kHz
Frame rate : 31.250 FPS (1536 spf)
Bit depth : 16 bits
Compression mode : Lossy
Stream size : 325 MiB (19%)
Title : DVD RESYNC
Language : Italian
Service kind : Complete Main
Default : Yes
Forced : No

Text #1
ID : 3
Format : UTF-8
Codec ID : S_TEXT/UTF8
Codec ID/Info : UTF-8 Plain Text
Duration : 1 h 57 min
Bit rate : 2 b/s
Count of elements : 46
Stream size : 1.97 KiB (0%)
Title : FORCED
Language : Italian
Default : Yes
Forced : No

Text #2
ID : 4
Format : UTF-8
Codec ID : S_TEXT/UTF8
Codec ID/Info : UTF-8 Plain Text
Duration : 1 h 57 min
Bit rate : 74 b/s
Count of elements : 1856
Stream size : 64.5 KiB (0%)
Title : REGOLARI
Language : Italian
Default : No
Forced : No





General
Unique ID : 203741290206296135798649768301792977198 (0x99472529F7F43742AED5E4F376C5E12E)
Complete name : A:\Marshall.2017.iTA.Bluray.720p.x264-CYBER.mkv
Format : Matroska
Format version : Version 4 / Version 2
File size : 3.31 GiB
Duration : 1 h 58 min
Overall bit rate : 3 996 kb/s
Encoded date : UTC 2018-02-13 13:28:07
Writing application : mkvmerge v8.3.0 ('Over the Horizon') 64bit
Writing library : libebml v1.3.1 + libmatroska v1.4.2

Video
ID : 1
Format : AVC
Format/Info : Advanced Video Codec
Format profile : High@L4.1
Format settings, CABAC : Yes
Format settings, ReFrames : 5 frames
Codec ID : V_MPEG4/ISO/AVC
Duration : 1 h 58 min
Bit rate : 3 610 kb/s
Width : 1 280 pixels
Height : 640 pixels
Display aspect ratio : 2.000
Frame rate mode : Constant
Frame rate : 23.976 (24000/1001) FPS
Color space : YUV
Chroma subsampling : 4:2:0
Bit depth : 8 bits
Scan type : Progressive
Bits/(Pixel*Frame) : 0.184
Stream size : 2.99 GiB (90%)
Writing library : x264 core 152 r2851 ba24899
Language : English
Default : Yes
Forced : No

Audio
ID : 2
Format : AC-3
Format/Info : Audio Coding 3
Format settings, Endianness : Big
Codec ID : A_AC3
Duration : 1 h 58 min
Bit rate mode : Constant
Bit rate : 384 kb/s
Channel(s) : 6 channels
Channel positions : Front: L C R, Side: L R, LFE
Sampling rate : 48.0 kHz
Frame rate : 31.250 FPS (1536 spf)
Bit depth : 16 bits
Compression mode : Lossy
Stream size : 325 MiB (10%)
Title : DVD RESYNC
Language : Italian
Service kind : Complete Main
Default : Yes
Forced : No

Text #1
ID : 3
Format : UTF-8
Codec ID : S_TEXT/UTF8
Codec ID/Info : UTF-8 Plain Text
Duration : 1 h 57 min
Bit rate : 2 b/s
Count of elements : 46
Stream size : 1.97 KiB (0%)
Title : FORCED
Language : Italian
Default : Yes
Forced : No

Text #2
ID : 4
Format : UTF-8
Codec ID : S_TEXT/UTF8
Codec ID/Info : UTF-8 Plain Text
Duration : 1 h 57 min
Bit rate : 74 b/s
Count of elements : 1856
Stream size : 64.5 KiB (0%)
Title : REGOLARI
Language : Italian
Default : No
Forced : No




Screenshots BDRip

Marshall (2017)

Marshall (2017)

Marshall (2017)


Screenshots BDRip 720p

Marshall (2017)

Marshall (2017)

Marshall (2017)