Tags
Language
Tags

Mary! Mary! (1977)

Posted By: Tavaz
720p (HD) / BDRip IMDb
Mary! Mary! (1977)

Mary! Mary! (1977)
BDRip | MKV | 1280x720 | English | H264 @ 2560 kbps | AC-3 @ 160 kbps | 1 h 19 min | 1.51 GiB
Subtitles: English
Genre: Comedy, Fantasy

Businessman John Leslie is faced with premature ejaculation and sells his soul to the Devil for an all-powerful aphrodisiac that gives him super human endurance. Now the problem is that he just can’t say no to anyone. The sex becomes so great that the Devil himself soon becomes jealous. The story culminates in a climatic orgy in which the Devil becomes aroused by Constance Money.

617c5da59bd59c6282db6a5a694fcb4c.mkv (1.5 GB)



General
Unique ID : 103173732142172601920493930390907800519 (0x4D9E89BBB928554375ECF6ADE6D44BC7)
Complete name : ./617c5da59bd59c6282db6a5a694fcb4c.mkv
Format : Matroska
Format version : Version 4 / Version 2
File size : 1.51 GiB
Duration : 1 h 19 min
Overall bit rate : 2 722 kb/s
Movie name : Mary!.Mary!.1977.720p.BluRay.x264-x0r
Encoded date : UTC 2018-03-22 20:14:47
Writing application : mkvmerge v7.7.0 ('Six Voices') 64bit built on Mar 1 2015 01:50:05
Writing library : libebml v1.3.1 + libmatroska v1.4.2

Video
ID : 1
Format : AVC
Format/Info : Advanced Video Codec
Format profile : High@L4
Format settings : CABAC / 8 Ref Frames
Format settings, CABAC : Yes
Format settings, RefFrames : 8 frames
Codec ID : V_MPEG4/ISO/AVC
Duration : 1 h 19 min
Bit rate : 2 560 kb/s
Width : 1 280 pixels
Height : 720 pixels
Display aspect ratio : 16:9
Frame rate mode : Constant
Frame rate : 23.976 FPS
Color space : YUV
Chroma subsampling : 4:2:0
Bit depth : 8 bits
Scan type : Progressive
Bits/(Pixel*Frame) : 0.116
Stream size : 1.42 GiB (94%)
Writing library : x264 core 142 r2389 956c8d8
Encoding settings : cabac=1 / ref=8 / deblock=1:-2:-2 / analyse=0x3:0x113 / me=umh / subme=9 / psy=1 / psy_rd=1.00:0.25 / mixed_ref=0 / me_range=32 / chroma_me=1 / trellis=2 / 8x8dct=1 / cqm=0 / deadzone=6,6 / fast_pskip=0 / chroma_qp_offset=-4 / threads=12 / lookahead_threads=1 / sliced_threads=0 / nr=0 / decimate=1 / interlaced=0 / bluray_compat=0 / constrained_intra=0 / bframes=4 / b_pyramid=2 / b_adapt=2 / b_bias=0 / direct=3 / weightb=1 / open_gop=0 / weightp=2 / keyint=240 / keyint_min=24 / scenecut=40 / intra_refresh=0 / rc_lookahead=60 / rc=2pass / mbtree=1 / bitrate=2560 / ratetol=1.0 / qcomp=0.00 / qpmin=0 / qpmax=69 / qpstep=4 / cplxblur=20.0 / qblur=0.5 / vbv_maxrate=20000 / vbv_bufsize=25000 / nal_hrd=none / filler=0 / ip_ratio=1.10 / aq=1:1.00
Language : English
Default : Yes
Forced : No
Color range : Limited
Color primaries : BT.709
Transfer characteristics : BT.709
Matrix coefficients : BT.709

Audio
ID : 2
Format : AC-3
Format/Info : Audio Coding 3
Format settings, Endianness : Big
Codec ID : A_AC3
Duration : 1 h 19 min
Bit rate mode : Constant
Bit rate : 160 kb/s
Channel(s) : 1 channel
Channel positions : Front: C
Sampling rate : 48.0 kHz
Frame rate : 31.250 FPS (1536 SPF)
Bit depth : 16 bits
Compression mode : Lossy
Delay relative to video : -5 ms
Stream size : 90.7 MiB (6%)
Title : Mono
Language : English
Service kind : Complete Main
Default : Yes
Forced : No

Text
ID : 3
Format : UTF-8
Codec ID : S_TEXT/UTF8
Codec ID/Info : UTF-8 Plain Text
Duration : 1 h 17 min
Bit rate : 23 b/s
Count of elements : 451
Stream size : 13.0 KiB (0%)
Language : English
Default : Yes
Forced : No

Menu
00:00:00.000 : :Chapter 1
00:21:11.854 : :Chapter 2
00:41:36.995 : :Chapter 3
01:01:24.389 : :Chapter 4





Mary! Mary! (1977)


Mary! Mary! (1977)


Mary! Mary! (1977)


Mary! Mary! (1977)


Mary! Mary! (1977)