Tags
Language
Tags

Mary and Max (2009)

Posted By: Tavaz
1080p (FullHD) / BDRip IMDb
Mary and Max (2009)

Mary and Max (2009)
BDRip | MKV | 1920x1048 | English | H265 @ 1537 kbps | AAC @ 192 kbps | 1 h 32 min | 1.12 GiB
Subtitles: English
Genre: Animation, Comedy, Drama

A tale of friendship between two unlikely pen pals: Mary, a lonely, eight-year-old girl living in the suburbs of Melbourne, and Max, a forty-four-year old, severely obese man living in New York. In the mid-1970s, a homely, friendless Australian girl of 8 picks a name out of a Manhattan phone book and writes to him; she includes a chocolate bar. He writes back, with chocolate. Thus begins a 20-year correspondence. Will the two ever meet face to face?

40c9ef691acb2076b34f186e6d60626c.mkv (1.1 GB)



General
Complete name : ./40c9ef691acb2076b34f186e6d60626c.mkv
Format : Matroska
Format version : Version 4 / Version 2
File size : 1.12 GiB
Duration : 1 h 32 min
Overall bit rate : 1 735 kb/s
Encoded date : UTC 2016-09-12 20:15:51
Writing application : mkvmerge v9.4.0 ('Knurl') 64bit
Writing library : libebml v1.3.4 + libmatroska v1.4.5

Video
ID : 1
Format : HEVC
Format/Info : High Efficiency Video Coding
Format profile : Main 10@L4@Main
Codec ID : V_MPEGH/ISO/HEVC
Duration : 1 h 32 min
Bit rate : 1 537 kb/s
Width : 1 920 pixels
Height : 1 048 pixels
Display aspect ratio : 1.85:1
Frame rate mode : Constant
Frame rate : 23.976 (24000/1001) FPS
Color space : YUV
Chroma subsampling : 4:2:0
Bit depth : 10 bits
Bits/(Pixel*Frame) : 0.032
Stream size : 1 014 MiB (89%)
Default : Yes
Forced : No
Color range : Limited
Color primaries : BT.709
Transfer characteristics : BT.709
Matrix coefficients : BT.709

Audio
ID : 2
Format : AAC
Format/Info : Advanced Audio Codec
Format profile : HE-AAC / LC
Format settings : Explicit
Codec ID : A_AAC-2
Duration : 1 h 32 min
Bit rate : 192 kb/s
Channel(s) : 6 channels
Channel positions : Front: L C R, Side: L R, LFE
Sampling rate : 48.0 kHz / 24.0 kHz
Frame rate : 23.438 FPS (1024 SPF)
Compression mode : Lossy
Delay relative to video : 23 ms
Stream size : 129 MiB (11%)
Language : English
Default : Yes
Forced : No

Text
ID : 3
Format : UTF-8
Codec ID : S_TEXT/UTF8
Codec ID/Info : UTF-8 Plain Text
Duration : 1 h 28 min
Bit rate : 54 b/s
Count of elements : 1089
Stream size : 35.4 KiB (0%)
Title : ENG
Language : English
Default : Yes
Forced : No

Menu
00:00:00.000 : :Chapter 1
00:04:59.600 : :Chapter 2
00:09:58.600 : :Chapter 3
00:14:59.600 : :Chapter 4
00:19:58.800 : :Chapter 4
00:19:59.600 : :Chapter 5
00:24:58.600 : :Chapter 6
00:29:59.000 : :Chapter 6
00:29:59.600 : :Chapter 7
00:34:59.000 : :Chapter 7
00:34:59.600 : :Chapter 8
00:39:59.400 : :Chapter 9
00:45:00.200 : :Chapter 10
00:49:59.200 : :Chapter 10
00:49:59.800 : :Chapter 11
00:54:58.800 : :Chapter 11
00:54:59.400 : :Chapter 12
00:59:59.000 : :Chapter 13
01:04:59.800 : :Chapter 14
01:09:58.600 : :Chapter 14
01:09:59.400 : :Chapter 15
01:14:59.400 : :Chapter 16
01:19:59.000 : :Chapter 16
01:19:59.800 : :Chapter 17
01:25:00.000 : :Chapter 18
01:29:59.000 : :Chapter 19





Mary and Max (2009)


Mary and Max (2009)


Mary and Max (2009)


Mary and Max (2009)


Mary and Max (2009)