Tags
Language
Tags

Masters In The Forbidden City (2016)

Posted By:
1080p (FullHD) / BDRip IMDb
Masters In The Forbidden City (2016)

Masters In The Forbidden City (2016)
BDRip | MKV | 1920x1080 | 中文 | H264 @ 17468 kbps | E-AC-3 @ 1023 kbps | 1 h 23 min | 10.7 GiB
Subtitles: 中文, English
Genre: Documentary

This documentary shines a light on the unsung life stories of restorers of cultural relics working inside the Forbidden City, together with the history of the antiques and the palace, the procedures of restoration and the development of cultural protection.

Masters.in.Forbidden.City.2016.1080p.BluRay.DD5.1.x264-KiR.part1.rar (5.6 GB)
Masters.in.Forbidden.City.2016.1080p.BluRay.DD5.1.x264-KiR.part2.rar (5.2 GB)



General
Unique ID : 67968253754823108270181544856805821103 (0x332235A2EEE233B59A037DDF7AADCAAF)
Complete name : ./d4aa76eb08f79b2fa32eaa2e79e383be.mkv
Format : Matroska
Format version : Version 4 / Version 2
File size : 10.7 GiB
Duration : 1 h 23 min
Overall bit rate : 18.5 Mb/s
Movie name : Masters.in.Forbidden.City.2016.1080p.BluRay.DD+5.1.x264-KiR
Encoded date : UTC 2019-07-01 04:48:17
Writing application : mkvmerge v34.0.0 ('Sight and Seen') 64-bit
Writing library : libebml v1.3.7 + libmatroska v1.5.0

Video
ID : 4
Format : AVC
Format/Info : Advanced Video Codec
Format profile : High@L4.1
Format settings : CABAC / 4 Ref Frames
Format settings, CABAC : Yes
Format settings, RefFrames : 4 frames
Codec ID : V_MPEG4/ISO/AVC
Duration : 1 h 23 min
Bit rate : 17.5 Mb/s
Width : 1 920 pixels
Height : 1 080 pixels
Display aspect ratio : 16:9
Frame rate mode : Constant
Frame rate : 25.000 FPS
Color space : YUV
Chroma subsampling : 4:2:0
Bit depth : 8 bits
Scan type : Progressive
Bits/(Pixel*Frame) : 0.337
Stream size : 10.1 GiB (94%)
Writing library : x264 core 157 r2970+47 cae74a0 t_mod_New [0-bit@all X86_64]
Encoding settings : cabac=1 / ref=4 / deblock=1:-3:-3 / analyse=0x3:0x133 / me=umh / subme=10 / psy=1 / fade_compensate=0.00 / psy_rd=1.04:0.00 / mixed_ref=1 / me_range=32 / chroma_me=1 / trellis=2 / 8x8dct=1 / cqm=0 / deadzone=21,11 / fast_pskip=0 / chroma_qp_offset=-2 / threads=12 / lookahead_threads=2 / sliced_threads=0 / nr=0 / decimate=0 / interlaced=0 / bluray_compat=0 / constrained_intra=0 / fgo=0 / bframes=8 / b_pyramid=2 / b_adapt=2 / b_bias=0 / direct=3 / weightb=1 / open_gop=0 / weightp=2 / keyint=250 / keyint_min=25 / scenecut=40 / intra_refresh=0 / rc_lookahead=250 / rc=crf / mbtree=0 / crf=18.4000 / qcomp=0.65 / qpmin=0:0:0 / qpmax=69:69:69 / qpstep=4 / vbv_maxrate=62500 / vbv_bufsize=78125 / crf_max=0.0 / nal_hrd=none / filler=0 / ip_ratio=1.25 / pb_ratio=1.15 / aq=3:0.85 / aq-sensitivity=10.00 / aq-factor=1.00:1.00:1.00 / aq2=0 / aq3=0 / zones=1250,1481,b=0.1/3866,4000,b=2/11948,12092,b=1.8/12713,14630,crf=12/21621,21776,crf=12.5/23799,23973,crf=13/30366,30798,b=2/32850,32962,b=2.3/33192,33406,b=2.3/33464,33610,b=2.3/35726,35844,b=2.5/37437,37758,b=2.5/38259,38746,b=2/39595,40029,b=1.5/52645,52810,crf=12.5/55451,55572,crf=13/60687,60791,b=2.3/60903,60966,crf=12/63362,63488,b=2.3/70277,70537,b=2.3/72956,73083,b=2.5/76485,76556,b=2.5/76617,77893,b=2/81950,81956,b=2.3/82923,83044,b=2.3/84473,84479,crf=11/87240,87350,b=2.3/92881,93067,b=2.8/93068,93213,b=2/93578,93717,b=2.3/93718,93786,b=2.3/109929,110068,b=2.5/117064,117619,b=2/118200,124701,b=0.8
Default : No
Forced : No
Color range : Limited
Color primaries : BT.709
Matrix coefficients : BT.709

Audio
ID : 5
Format : E-AC-3
Format/Info : Enhanced Audio Coding 3
Format settings, Endianness : Big
Codec ID : A_EAC3
Duration : 1 h 23 min
Bit rate mode : Constant
Bit rate : 1 023 kb/s
Channel(s) : 6 channels
Channel positions : Front: L C R, Side: L R, LFE
Sampling rate : 48.0 kHz
Frame rate : 187.500 FPS (256 SPF)
Compression mode : Lossy
Stream size : 608 MiB (6%)
Language : Chinese
Service kind : Complete Main
Default : Yes
Forced : No

Text #1
ID : 1
Format : UTF-8
Codec ID : S_TEXT/UTF8
Codec ID/Info : UTF-8 Plain Text
Duration : 1 h 16 min
Bit rate : 51 b/s
Count of elements : 890
Stream size : 29.0 KiB (0%)
Language : English
Default : Yes
Forced : No

Text #2
ID : 2
Format : UTF-8
Codec ID : S_TEXT/UTF8
Codec ID/Info : UTF-8 Plain Text
Duration : 1 h 16 min
Bit rate : 40 b/s
Count of elements : 888
Stream size : 22.8 KiB (0%)
Title : Simplified
Language : Chinese
Default : No
Forced : No

Text #3
ID : 3
Format : UTF-8
Codec ID : S_TEXT/UTF8
Codec ID/Info : UTF-8 Plain Text
Duration : 1 h 16 min
Bit rate : 40 b/s
Count of elements : 888
Stream size : 22.8 KiB (0%)
Title : Traditional
Language : Chinese
Default : No
Forced : No

Menu
00:00:00.000 : en:Chapter 1
00:06:54.799 : en:Chapter 2
00:14:15.240 : en:Chapter 3
00:21:09.600 : en:Chapter 4
00:28:05.960 : en:Chapter 5
00:33:49.719 : en:Chapter 6
00:42:00.040 : en:Chapter 7
00:48:46.040 : en:Chapter 8
00:55:06.400 : en:Chapter 9
01:02:28.720 : en:Chapter 10
01:08:59.800 : en:Chapter 11
01:15:01.400 : en:Chapter 12





Masters In The Forbidden City (2016)


Masters In The Forbidden City (2016)


Masters In The Forbidden City (2016)


Masters In The Forbidden City (2016)


Masters In The Forbidden City (2016)