Tags
Language
Tags

PBS American Masters - Rothko Pictures Must Be Miraculous (2019)

Posted By: Tutorial
720p (HD) / WEBRip IMDb
PBS American Masters - Rothko  Pictures  Must Be Miraculous (2019)

PBS American Masters - Rothko Pictures Must Be Miraculous (2019)
WEBRip | 1280 x 720 | .MKV/AVC @ 3000 Kbps | 53 min 10 s | 1.15 GB
Audio: English AAC 93.4 Kbps, 2 channels | Subs: None
Genre: Documentary

Since its premiere in 1986, this Emmy-winning documentary series has presented hundreds of hours comprising profiles of outstanding American cultural artists.

General
Unique ID : 111028206432280619693247792206731088981 (0x53874136E655E3F1627601AF82E51455)
Complete name : American.Masters.Rothko.Pictures.Must.Be.Miraculous.mkv
Format : Matroska
Format version : Version 4 / Version 2
File size : 1.15 GiB
Duration : 53 min 10 s
Overall bit rate : 3 083 kb/s
Encoded date : UTC 2019-10-30 13:14:28
Writing application : mkvmerge v8.8.0 ('Wind at my back') 64bit
Writing library : libebml v1.3.3 + libmatroska v1.4.4

Video
ID : 1
Format : AVC
Format/Info : Advanced Video Codec
Format profile : High@L3.1
Format settings, CABAC : Yes
Format settings, ReFrames : 3 frames
Codec ID : V_MPEG4/ISO/AVC
Duration : 53 min 10 s
Bit rate mode : Constant
Bit rate : 3 000 kb/s
Width : 1 280 pixels
Height : 720 pixels
Display aspect ratio : 16:9
Frame rate mode : Constant
Frame rate : 29.970 (30000/1001) FPS
Color space : YUV
Chroma subsampling : 4:2:0
Bit depth : 8 bits
Scan type : Progressive
Bits/(Pixel*Frame) : 0.109
Stream size : 1.11 GiB (97%)
Language : English
Default : Yes
Forced : Yes

Audio
ID : 2
Format : AAC
Format/Info : Advanced Audio Codec
Format profile : LC
Codec ID : A_AAC
Duration : 53 min 10 s
Bit rate : 93.4 kb/s
Channel(s) : 2 channels
Channel positions : Front: L R
Sampling rate : 48.0 kHz
Frame rate : 46.875 FPS (1024 spf)
Compression mode : Lossy
Stream size : 35.5 MiB (3%)
Language : English
Default : Yes
Forced : Yes
Screenshots

PBS American Masters - Rothko  Pictures  Must Be Miraculous (2019)

PBS American Masters - Rothko  Pictures  Must Be Miraculous (2019)

PBS American Masters - Rothko  Pictures  Must Be Miraculous (2019)

Welcome to my blog - daily update!

PBS American Masters - Rothko  Pictures  Must Be Miraculous (2019)