National Geographic - Mega Food: Series 1 (2012)

Posted By: notbanned
720p (HD) / HDTV
National Geographic - Mega Food: Series 1 (2012)

National Geographic - Mega Food: Series 1 (2012)
HDTV | 1280x720 | .MP4/AVC @ 2800 Kbps | 6x~48min | 5.95 GiB
Audio: English AAC 160 kbps, 2 channels | Subs: English
Genre: Documentary

Take a tasty adventure across the world from behind the scenes of the biggest kitchens on the planet.
Part 1: Aussie Super Pub
With the weekend approaching, the team at Australia's biggest pub are pulling out all the stops. They only have 4 days to do the shopping, preparation and cooking. With a farm to table philosophy and a small team of experts, it's a battle to the finish line.

Part 2: Worlds Biggest Cruise Ship
With 250 chefs turning more than 100 tonnes of raw ingredients into 250,000 meals every week, culinary operations Royal Caribbean's Oasis of the Seas are akin to a military exercise.

Part 3: Marina Bay Sands Masterchef
Marina Bay Sands towers over Singapore, boasting more than 2,500 guest rooms and 20 restaurants. Find out how the hotel’s team of master chefs keep both the guests and the employees well fed.

Part 4: Up in the Air
One aircraft and over 400 hungry passengers - that's the challenge faced daily by the chef's at Zurich based Gate Gourmet. On average, every day they produce 50,000 meals for the visiting and home-based airlines and each one is given the same care and attention as a five star meal.

Part 5: Catering to Fashion
Florence is about to host the men's fashion show of the season and for caterer Galateo Ricevimenti that means turning a fashion theme into a culinary dream that will push his team to the very limit.

Part 6: SeaWorld Orlando
Join the culinary team at Seaworld Orlando for a day in the kitchens. With 1200 people, culinary operations are the biggest department in the park and it's no wonder. It's a 24-hour operation that runs 365 days of the year. Supplying 13 restaurants, over 50 carts and kiosks and special event dining, and just one of these venues serves over 1000 people an hour. Enter the Seaworld kitchens and experience a very different side to Orlando's favourite marine theme park.

General
Complete name : Mega.Food.Series.1.1of6.Aussie.Super.Pub.720p.mp4
Format : MPEG-4
Format profile : Base Media
Codec ID : isom (isom)
File size : 1 020 MiB
Duration : 48 min 8 s
Overall bit rate mode : Variable
Overall bit rate : 2 962 kb/s

Video
ID : 1
Format : AVC
Format/Info : Advanced Video Codec
Format profile : High@L4.1
Format settings, CABAC : Yes
Format settings, ReFrames : 4 frames
Codec ID : avc1
Codec ID/Info : Advanced Video Coding
Duration : 48 min 8 s
Bit rate : 2 800 kb/s
Maximum bit rate : 14.6 Mb/s
Width : 1 280 pixels
Height : 720 pixels
Display aspect ratio : 16:9
Frame rate mode : Constant
Frame rate : 25.000 FPS
Color space : YUV
Chroma subsampling : 4:2:0
Bit depth : 8 bits
Scan type : Progressive
Bits/(Pixel*Frame) : 0.122
Stream size : 963 MiB (94%)
Encoding settings : cabac=1 / ref=1 / deblock=1:0:0 / analyse=0x3:0x113 / me=hex / subme=2 / psy=1 / psy_rd=1.00:0.00 / mixed_ref=0 / me_range=16 / chroma_me=1 / trellis=0 / 8x8dct=1 / cqm=0 / deadzone=21,11 / fast_pskip=1 / chroma_qp_offset=0 / threads=6 / lookahead_threads=2 / sliced_threads=0 / nr=0 / decimate=1 / interlaced=0 / bluray_compat=0 / constrained_intra=0 / bframes=3 / b_pyramid=2 / b_adapt=1 / b_bias=0 / direct=1 / weightb=1 / open_gop=0 / weightp=1 / keyint=250 / keyint_min=25 / scenecut=40 / intra_refresh=0 / rc_lookahead=10 / rc=abr / mbtree=1 / bitrate=2800 / ratetol=1.0 / qcomp=0.60 / qpmin=0 / qpmax=69 / qpstep=4 / vbv_maxrate=62500 / vbv_bufsize=78125 / nal_hrd=none / ip_ratio=1.40 / aq=1:1.00
Encoded date : UTC 2018-02-28 15:07:26
Tagged date : UTC 2018-02-28 22:15:00
Color range : Limited
Color primaries : BT.709
Transfer characteristics : BT.709
Matrix coefficients : BT.709

Audio
ID : 2
Format : AAC
Format/Info : Advanced Audio Codec
Format profile : LC
Codec ID : 40
Duration : 48 min 8 s
Bit rate mode : Variable
Bit rate : 160 kb/s
Maximum bit rate : 282 kb/s
Channel(s) : 2 channels
Channel positions : Front: L R
Sampling rate : 48.0 kHz
Frame rate : 46.875 FPS (1024 spf)
Compression mode : Lossy
Stream size : 54.9 MiB (5%)
Language : English
Encoded date : UTC 2018-02-28 22:14:55
Tagged date : UTC 2018-02-28 22:15:00

Text
ID : 3
Format : Timed Text
Codec ID : tx3g
Duration : 47 min 47 s
Bit rate mode : Variable
Bit rate : 121 b/s
Stream size : 42.4 KiB (0%)
Forced : No
Encoded date : UTC 2018-02-28 22:15:00
Tagged date : UTC 2018-02-28 22:15:00


Screenshots:

National Geographic - Mega Food: Series 1 (2012)

National Geographic - Mega Food: Series 1 (2012)

National Geographic - Mega Food: Series 1 (2012)

National Geographic - Mega Food: Series 1 (2012)