Tags
Language
Tags

Mike and Dave Need Wedding Dates (2016)

Posted By: Tavaz
1080p (FullHD) / BDRip IMDb
Mike and Dave Need Wedding Dates (2016)

Mike and Dave Need Wedding Dates (2016)
BDRip | MOV | 640x264 | H264 @ 400 kbps | AAC @ 128 kbps | 57 min 6 s | 217 MiB
Genre: Comedy

Mike and Dave are young, adventurous, fun-loving brothers who tend to get out of control at family gatherings. When their sister Jeanie reveals her Hawaiian wedding plans, the rest of the Stangles insist that the brothers bring respectable dates. After placing an ad on Craigslist, the siblings decide to pick Tatiana and Alice, two charming and seemingly normal women. Once they arrive on the island, however, Mike and Dave realize that their companions are ready to get wild and party.

Pereval Dyatlova 04.nl.srt (29.5 KB)
Pereval Dyatlova 05.mp4 (178.2 MB)
Pereval Dyatlova 06.mp4 (177.2 MB)
Pereval Dyatlova 08.mp4 (207.6 MB)
Pereval Dyatlova 07.mp4 (196.7 MB)
Pereval Dyatlova 07.nl.srt (37.3 KB)
Pereval Dyatlova 05.nl.srt (37.1 KB)
Pereval Dyatlova 03.nl.srt (30.7 KB)
Pereval Dyatlova 06.nl.srt (37.3 KB)
Pereval Dyatlova 02.mp4 (196.8 MB)
Pereval Dyatlova 09.mp4 (167.0 MB)
Pereval Dyatlova 08.nl.srt (31.6 KB)
Pereval Dyatlova 01.nl.srt (38.4 KB)
Pereval Dyatlova 03.mp4 (169.3 MB)
Pereval Dyatlova 01.mp4 (217.2 MB)
Pereval Dyatlova 04.mp4 (163.7 MB)
Pereval Dyatlova 02.nl.srt (35.5 KB)



General
Complete name : ./Pereval Dyatlova 01.mp4
Format : MPEG-4
Format profile : Base Media
Codec ID : isom (isom/avc1/iso6)
File size : 217 MiB
Duration : 57 min 6 s
Overall bit rate mode : Variable
Overall bit rate : 532 kb/s
Encoded date : UTC 2020-11-28 17:28:36
Tagged date : UTC 2020-11-28 17:28:36

Video
ID : 1
Format : AVC
Format/Info : Advanced Video Codec
Format profile : High@L4.1
Format settings : CABAC / 10 Ref Frames
Format settings, CABAC : Yes
Format settings, RefFrames : 10 frames
Codec ID : avc1
Codec ID/Info : Advanced Video Coding
Duration : 57 min 6 s
Bit rate : 400 kb/s
Maximum bit rate : 1 278 kb/s
Width : 640 pixels
Height : 264 pixels
Display aspect ratio : 2.40:1
Frame rate mode : Constant
Frame rate : 25.000 FPS
Color space : YUV
Chroma subsampling : 4:2:0
Bit depth : 8 bits
Scan type : Progressive
Bits/(Pixel*Frame) : 0.095
Stream size : 163 MiB (75%)
Title : 264@GPAC0.5.2-DEV-rev248-g39d5978-master
Writing library : x264 core 146 r2538 121396c
Encoding settings : cabac=1 / ref=10 / deblock=1:-3:-3 / analyse=0x3:0x133 / me=umh / subme=11 / psy=1 / psy_rd=1.00:1.00 / mixed_ref=1 / me_range=48 / chroma_me=1 / trellis=2 / 8x8dct=1 / cqm=0 / deadzone=21,11 / fast_pskip=0 / chroma_qp_offset=-4 / threads=6 / lookahead_threads=1 / sliced_threads=0 / nr=0 / decimate=0 / interlaced=0 / bluray_compat=0 / constrained_intra=0 / bframes=10 / b_pyramid=2 / b_adapt=2 / b_bias=0 / direct=3 / weightb=1 / open_gop=0 / weightp=2 / keyint=240 / keyint_min=24 / scenecut=40 / intra_refresh=0 / rc_lookahead=60 / rc=2pass / mbtree=0 / bitrate=400 / ratetol=1.0 / qcomp=0.60 / qpmin=0 / qpmax=69 / qpstep=4 / cplxblur=20.0 / qblur=0.5 / vbv_maxrate=14000 / vbv_bufsize=14000 / nal_hrd=none / filler=0 / ip_ratio=1.40 / pb_ratio=1.30 / aq=1:1.00
Encoded date : UTC 2020-11-28 17:28:36
Tagged date : UTC 2020-11-28 17:28:42

Audio
ID : 2
Format : AAC
Format/Info : Advanced Audio Codec
Format profile : LC
Codec ID : mp4a-40-2
Duration : 57 min 6 s
Bit rate mode : Variable
Bit rate : 128 kb/s
Maximum bit rate : 139 kb/s
Channel(s) : 2 channels
Channel positions : Front: L R
Sampling rate : 44.1 kHz
Frame rate : 43.066 FPS (1024 SPF)
Compression mode : Lossy
Stream size : 52.3 MiB (24%)
Encoded date : UTC 2020-11-28 16:35:27
Tagged date : UTC 2020-11-28 17:28:42





Mike and Dave Need Wedding Dates (2016)


Mike and Dave Need Wedding Dates (2016)


Mike and Dave Need Wedding Dates (2016)


Mike and Dave Need Wedding Dates (2016)


Mike and Dave Need Wedding Dates (2016)