Tags
Language
Tags

Mindwarp (1992)

Posted By: Tavaz
1080p (FullHD) / BDRip IMDb
Mindwarp (1992)

Mindwarp (1992)
BDRip | MKV | 1920x1080 | English | H264 @ 5760 kbps | AC-3 @ 192 kbps | 1 h 35 min | 3.98 GiB
Subtitles: English
Genre: Horror, Science Fiction, Thriller

Revolting mutants hunt human outcasts and underground fighters (Bruce Campbell, Marta Alicia) in a future world of mind control.

e0ea6371e55703dfe96c50a78aea3212.mkv (4.0 GB)



General
Complete name : ./e0ea6371e55703dfe96c50a78aea3212.mkv
Format : Matroska
Format version : Version 4 / Version 2
File size : 3.98 GiB
Duration : 1 h 35 min
Overall bit rate : 5 941 kb/s
Encoded date : UTC 2020-05-12 21:48:32 / UTC 2020-05-11T12:36:32Z
Writing application : mkvmerge v38.0.0 ('The Silent Type') 64-bit
Writing library : libebml v1.3.9 + libmatroska v1.5.2 / Lavf57.7.2

Video
ID : 1
Format : AVC
Format/Info : Advanced Video Codec
Format profile : High@L4
Format settings : CABAC / 4 Ref Frames
Format settings, CABAC : Yes
Format settings, RefFrames : 4 frames
Codec ID : V_MPEG4/ISO/AVC
Duration : 1 h 35 min
Bit rate : 5 760 kb/s
Width : 1 920 pixels
Height : 1 080 pixels
Display aspect ratio : 16:9
Frame rate mode : Constant
Frame rate : 23.976 (24000/1001) FPS
Color space : YUV
Chroma subsampling : 4:2:0
Bit depth : 8 bits
Scan type : Progressive
Bits/(Pixel*Frame) : 0.116
Stream size : 3.77 GiB (95%)
Writing library : x264 core 155 r2901 7d0ff22
Encoding settings : cabac=1 / ref=4 / deblock=1:-3:-3 / analyse=0x3:0x133 / me=umh / subme=9 / psy=1 / psy_rd=1.10:0.25 / mixed_ref=1 / me_range=32 / chroma_me=1 / trellis=2 / 8x8dct=1 / cqm=0 / deadzone=6,6 / fast_pskip=1 / chroma_qp_offset=-4 / threads=34 / lookahead_threads=3 / sliced_threads=0 / nr=0 / decimate=1 / interlaced=0 / bluray_compat=0 / constrained_intra=0 / bframes=6 / b_pyramid=2 / b_adapt=2 / b_bias=0 / direct=3 / weightb=1 / open_gop=0 / weightp=2 / keyint=240 / keyint_min=24 / scenecut=40 / intra_refresh=0 / rc_lookahead=40 / rc=2pass / mbtree=1 / bitrate=5760 / ratetol=1.0 / qcomp=0.60 / qpmin=0 / qpmax=69 / qpstep=4 / cplxblur=20.0 / qblur=0.5 / vbv_maxrate=20000 / vbv_bufsize=25000 / nal_hrd=none / filler=0 / ip_ratio=1.40 / aq=1:1.00
Default : Yes
Forced : No
Color range : Limited
Color primaries : BT.709
Transfer characteristics : BT.709
Matrix coefficients : BT.709
Statistics Tags Issue : mkvmerge v38.0.0 ('The Silent Type') 64-bit 2020-05-12 21:48:32 / mkvmerge v38.0.0 ('The Silent Type') 64-bit 2020-05-12 21:48:32 / UTC 2020-05-11T12:36:32Z
FromStats_BitRate : 5746719
FromStats_Duration : 01:35:50.662000000
FromStats_FrameCount : 137878
FromStats_StreamSize : 4130930290

Audio
ID : 2
Format : AC-3
Format/Info : Audio Coding 3
Format settings, Endianness : Big
Codec ID : A_AC3
Duration : 1 h 35 min
Bit rate mode : Constant
Bit rate : 192 kb/s
Channel(s) : 2 channels
Channel positions : Front: L R
Sampling rate : 48.0 kHz
Frame rate : 31.250 FPS (1536 SPF)
Bit depth : 16 bits
Compression mode : Lossy
Stream size : 132 MiB (3%)
Title : Stereo
Language : English
Service kind : Complete Main
Default : Yes
Forced : No
Statistics Tags Issue : mkvmerge v38.0.0 ('The Silent Type') 64-bit 2020-05-12 21:48:32 / mkvmerge v38.0.0 ('The Silent Type') 64-bit 2020-05-12 21:48:32 / UTC 2020-05-11T12:36:32Z
FromStats_BitRate : 192000
FromStats_Duration : 01:35:48.768000000
FromStats_FrameCount : 179649
FromStats_StreamSize : 137970432

Text
ID : 3
Format : UTF-8
Codec ID : S_TEXT/UTF8
Codec ID/Info : UTF-8 Plain Text
Language : English
Default : Yes
Forced : No
Statistics Tags Issue : mkvmerge v38.0.0 ('The Silent Type') 64-bit 2020-05-12 21:48:32 / mkvmerge v38.0.0 ('The Silent Type') 64-bit 2020-05-12 21:48:32 / UTC 2020-05-11T12:36:32Z
FromStats_BitRate : 31
FromStats_Duration : 01:31:21.802000000
FromStats_FrameCount : 861
FromStats_StreamSize : 21750

Menu
00:00:00.000 : :Chapter 1
00:07:59.854 : :Chapter 2
00:16:00.793 : :Chapter 3
00:24:01.065 : :Chapter 4
00:32:01.503 : :Chapter 5
00:40:02.775 : :Chapter 6
00:48:02.463 : :Chapter 7
00:56:03.443 : :Chapter 8
01:04:03.757 : :Chapter 9
01:12:04.028 : :Chapter 10
01:20:04.300 : :Chapter 11
01:30:05.317 : :Chapter 12
01:35:48.785 : :Chapter 13





Mindwarp (1992)


Mindwarp (1992)


Mindwarp (1992)


Mindwarp (1992)


Mindwarp (1992)