History Channel - Miracle Rising: South Africa (2013)

Posted By: ParRus
History Channel - Miracle Rising: South Africa (2013)

History Channel - Miracle Rising: South Africa (2013)
HDTV | English | MKV | 1280 x 720 | AVC ~2486 Kbps | 25 fps
AC-3 | 384 kbps | 48.0 KHz | 2 channels | 1h 32mn | 1.89 GB
Genre: Documentary

SOUTH AFRICA is the epic legacy of South Africa’s political transformation that culminated in the first free and fair elections in April 1994. Narrated through personal and intimate accounts from world leaders, politicians, celebrities and journalists, this thought-provoking documentary reflects on South Africa’s very own ‘Miracle’ – the inspiring story of a journey from apartheid to democracy.
SOUTH AFRICA is a moving testament to the choices of people, both ordinary and iconic, where the human capacity to find compassion enabled a nation to avoid civil war and reach forgiveness for the greater good. From Nelson Mandela’s decision to learn Afrikaans while in prison, to the amnesty hearings of the Truth & Reconciliation Commission, it explores the difficult decisions that were taken enabling enemies to achieve peace. From the evil legacy of apartheid, to the triumphant first democratic elections, the documentary moves beyond mere chronology, into the hearts and minds of the leaders and people of South Africa, culminating in the electrifying behind-the-scenes events of the elections.

Offering valuable lessons in peace-making, MIRACLE RISING®: SOUTH AFRICA focuses on the visionary leadership and negotiations that brought about transition of the nationalist regime to a system of one-person, one-vote. Told through simple, intimate portraits of key players, it weaves an epic story of a nation into an intimate history of men and women determined to change the country for the best for all who live there.

General
Complete name : History.Channel.Miracle.Rising.South.Africa.mkv
Format : Matroska
Format version : Version 2
File size : 1.89 GiB
Duration : 1h 32mn
Overall bit rate : 2 928 Kbps
Encoded date : UTC 2013-02-12 10:50:20
Writing application : mkvmerge v5.3.0 ('I could have danced') built on Feb 9 2012 10:38:07
Writing library : libebml v1.2.3 + libmatroska v1.3.0
Video #1
ID : 1
Format : AVC
Format/Info : Advanced Video Codec
Format profile : High@L4.1
Format settings, CABAC : Yes
Format settings, ReFrames : 5 frames
Codec ID : V_MPEG4/ISO/AVC
Duration : 1h 32mn
Bit rate : 2 486 Kbps
Width : 1 280 pixels
Height : 720 pixels
Display aspect ratio : 16:9
Frame rate : 25.000 fps
Color space : YUV
Chroma subsampling : 4:2:0
Bit depth : 8 bits
Scan type : Progressive
Bits/(Pixel*Frame) : 0.108
Stream size : 1.60 GiB (85%)
Writing library : x264 core 129 r2245 bc13772
Encoding settings : cabac=1 / ref=5 / deblock=1:0:0 / analyse=0x3:0x113 / me=umh / subme=8 / psy=1 / psy_rd=1.00:0.00 / mixed_ref=1 / me_range=16 / chroma_me=1 / trellis=1 / 8x8dct=1 / cqm=0 / deadzone=21,11 / fast_pskip=1 / chroma_qp_offset=-2 / threads=12 / lookahead_threads=2 / sliced_threads=0 / nr=0 / decimate=1 / interlaced=0 / bluray_compat=0 / constrained_intra=0 / bframes=3 / b_pyramid=2 / b_adapt=2 / b_bias=0 / direct=3 / weightb=1 / open_gop=0 / weightp=2 / keyint=250 / keyint_min=25 / scenecut=40 / intra_refresh=0 / rc_lookahead=50 / rc=crf / mbtree=1 / crf=21.0 / qcomp=0.60 / qpmin=0 / qpmax=69 / qpstep=4 / ip_ratio=1.40 / aq=1:1.00
Audio #2
ID : 2
Format : AC-3
Format/Info : Audio Coding 3
Format profile : Dolby Digital
Mode extension : CM (complete main)
Codec ID : A_AC3
Duration : 1h 32mn
Bit rate mode : Constant
Bit rate : 384 Kbps
Channel(s) : 2 channels
Channel positions : Front: L R
Sampling rate : 48.0 KHz
Bit depth : 16 bits
Compression mode : Lossy
Delay relative to video : 32ms
Stream size : 254 MiB (13%)
Language : English

ScreenShots

History Channel - Miracle Rising: South Africa (2013)

History Channel - Miracle Rising: South Africa (2013)

History Channel - Miracle Rising: South Africa (2013)

For more, Visit my AH-blog

no mirrors please, Follow The Rules