Mission: Impossible - Fallout (2018)

Posted By: Tavaz
SD / BDRip IMDb
Mission: Impossible - Fallout (2018)

Mission: Impossible - Fallout (2018)
BDRip | AVI | 720x384 | German | MP4V-ES @ 1649 kbps | AC-3 @ 448 kbps | 2 h 27 min | 2.17 GiB
Genre: Action, Adventure, Thriller

Nach einer missglückten Mission wird Geheimagent Ethan Hunt mehr denn je mit den Konsequenzen seiner vergangenen Taten konfrontiert. Während ihn seine Vergangenheit heimsucht, sieht sich die Welt einer schweren nuklearen Bedrohung ausgesetzt. Unter der Führung des neuen IMF-Chefs Alan Hunley müssen Ethan, seine Kollegen Benji Dunn und Luther Stickell sowie MI6-Agentin Ilsa Faust in einem Wettlauf gegen die Zeit einmal mehr eine Katastrophe verhindern…

cd-mifallout.avi (2.2 GB)



General
Complete name : ./Mission.Impossible.Fallout.2018.German.BDRip.AC3.XViD-CiNEDOME/cd-mifallout.avi
Format : AVI
Format/Info : Audio Video Interleave
Format profile : OpenDML
Format settings : rec
File size : 2.17 GiB
Duration : 2 h 27 min
Overall bit rate : 2 103 kb/s
Writing application : AVI-Mux GUI 1.17.8.3, Feb 16 201019:42:50

Video
ID : 0
Format : MPEG-4 Visual
Format profile : Advanced Simple@L5
Format settings : BVOP2
Format settings, BVOP : 2
Format settings, QPel : No
Format settings, GMC : No warppoints
Format settings, Matrix : Default (MPEG)
Codec ID : XVID
Codec ID/Hint : XviD
Duration : 2 h 27 min
Bit rate : 1 650 kb/s
Width : 720 pixels
Height : 384 pixels
Display aspect ratio : 1.85:1
Frame rate : 23.976 (24000/1001) FPS
Color space : YUV
Chroma subsampling : 4:2:0
Bit depth : 8 bits
Scan type : Progressive
Compression mode : Lossy
Bits/(Pixel*Frame) : 0.249
Stream size : 1.70 GiB (78%)
Writing library : XviD 67

Audio
ID : 1
Format : AC-3
Format/Info : Audio Coding 3
Format settings, Endianness : Big
Codec ID : 2000
Duration : 2 h 27 min
Bit rate mode : Constant
Bit rate : 448 kb/s
Channel(s) : 6 channels
Channel positions : Front: L C R, Side: L R, LFE
Sampling rate : 48.0 kHz
Frame rate : 31.250 FPS (1536 SPF)
Bit depth : 16 bits
Compression mode : Lossy
Stream size : 472 MiB (21%)
Alignment : Aligned on interleaves
Interleave, duration : 64 ms (1.53 video frames)
Interleave, preload duration : 192 ms
Title : lhd-mi.fallout-720 - [0] German_new
Service kind : Complete Main





Mission: Impossible - Fallout (2018)


Mission: Impossible - Fallout (2018)


Mission: Impossible - Fallout (2018)


Mission: Impossible - Fallout (2018)


Mission: Impossible - Fallout (2018)