Mission: Impossible - Fallout (2018) [IMAX]

Posted By: Without
1080p (FullHD) / WEB-DL IMDb
Mission: Impossible - Fallout (2018) [IMAX]

Mission: Impossible - Fallout (2018)
HDRip | AVI | 720x384 | XviD@1129 kb/s | English AC3@384 kb/s | 6 channels | 2 h 27 min | 1.57 GB
WEB-DL 720p | MKV | 1280x674 | AVC@4048 kb/s | English AC3@384 kb/s | 6 channels | 2 h 27 min | 4.57 GB
WEB-DL 1080p | MKV | 1920x1012 | AVC@5124 kb/s | English AC3@384 kb/s | 6 channels | 2 h 27 min | 5.68 GB
Genre: Action | Adventure | Thriller

Ethan Hunt and his IMF team, along with some familiar allies, race against time after a mission gone wrong.

IMDB - 2 nominations.


General
Mission.Impossible.Fallout.2018.HDRip.XviD.AC3-EVO.avi
Format : AVI
Format/Info : Audio Video Interleave
File size : 1.57 GiB
Duration : 2 h 27 min
Overall bit rate : 1 522 kb/s
Writing library : VirtualDub build 32593/release

Video
ID : 0
Format : MPEG-4 Visual
Format profile : Advanced Simple@L5
Format settings, BVOP : 2
Format settings, QPel : No
Format settings, GMC : No warppoints
Format settings, Matrix : Default (H.263)
Muxing mode : Packed bitstream
Codec ID : XVID
Codec ID/Hint : XviD
Duration : 2 h 27 min
Bit rate : 1 129 kb/s
Width : 720 pixels
Height : 384 pixels
Display aspect ratio : 1.85:1
Frame rate : 23.976 (24000/1001) FPS
Color space : YUV
Chroma subsampling : 4:2:0
Bit depth : 8 bits
Scan type : Progressive
Compression mode : Lossy
Bits/(Pixel*Frame) : 0.170
Stream size : 1.16 GiB (74%)
Writing library : XviD 67

Audio
ID : 1
Format : AC-3
Format/Info : Audio Coding 3
Mode extension : CM (complete main)
Format settings, Endianness : Big
Codec ID : 2000
Duration : 2 h 27 min
Bit rate mode : Constant
Bit rate : 384 kb/s
Channel(s) : 6 channels
Channel positions : Front: L C R, Side: L R, LFE
Sampling rate : 48.0 kHz
Frame rate : 31.250 FPS (1536 spf)
Bit depth : 16 bits
Compression mode : Lossy
Stream size : 406 MiB (25%)
Alignment : Aligned on interleaves
Interleave, duration : 42 ms (1.00 video frame)
Interleave, preload duration : 512 ms


General
Mission.Impossible.Fallout.2018.720p.WEB-DL.H264.AC3-EVO.mkv
Format : Matroska
Format version : Version 4 / Version 2
File size : 4.57 GiB
Duration : 2 h 27 min
Overall bit rate : 4 433 kb/s
Encoded date : UTC 2018-11-06 14:14:18
Writing application : mkvmerge v25.0.0 ('Prog Noir') 64-bit
Writing library : libebml v1.3.6 + libmatroska v1.4.9

Video
ID : 2
Format : AVC
Format/Info : Advanced Video Codec
Format profile : High@L3.1
Format settings, CABAC : No
Format settings, ReFrames : 2 frames
Codec ID : V_MPEG4/ISO/AVC
Duration : 2 h 27 min
Bit rate : 4 048 kb/s
Width : 1 280 pixels
Height : 674 pixels
Display aspect ratio : 1.899
Frame rate mode : Constant
Frame rate : 23.976 FPS
Color space : YUV
Chroma subsampling : 4:2:0
Bit depth : 8 bits
Scan type : Progressive
Bits/(Pixel*Frame) : 0.196
Stream size : 4.18 GiB (91%)
Language : English
Default : Yes
Forced : No
Color range : Limited
Color primaries : BT.709
Transfer characteristics : BT.709
Matrix coefficients : BT.709

Audio
ID : 1
Format : AC-3
Format/Info : Audio Coding 3
Mode extension : CM (complete main)
Format settings, Endianness : Big
Codec ID : A_AC3
Duration : 2 h 27 min
Bit rate mode : Constant
Bit rate : 384 kb/s
Channel(s) : 6 channels
Channel positions : Front: L C R, Side: L R, LFE
Sampling rate : 48.0 kHz
Frame rate : 31.250 FPS (1536 spf)
Bit depth : 16 bits
Compression mode : Lossy
Delay relative to video : -43 ms
Stream size : 405 MiB (9%)
Language : English
Default : Yes
Forced : No

Menu
00:00:00.000 : en:1
00:10:35.000 : en:2
00:17:09.000 : en:3
00:26:54.000 : en:4
00:35:53.000 : en:5
00:49:14.000 : en:6
00:59:56.000 : en:7
01:10:18.000 : en:8
01:17:01.000 : en:9
01:28:22.000 : en:10
01:39:02.000 : en:11
01:46:19.000 : en:12
01:55:37.000 : en:13
02:03:02.000 : en:14
02:13:52.000 : en:15
02:19:38.000 : en:16


General
Mission.Impossible.Fallout.2018.1080p.WEB-DL.DD5.1.H264-CMRG.mkv
Format : Matroska
Format version : Version 4 / Version 2
File size : 5.68 GiB
Duration : 2 h 27 min
Overall bit rate : 5 509 kb/s
Movie name : CMRG
Encoded date : UTC 2018-11-06 14:14:50
Writing application : mkvmerge v11.0.0 ('Alive') 64bit
Writing library : libebml v1.3.4 + libmatroska v1.4.5

Video
ID : 1
Format : AVC
Format/Info : Advanced Video Codec
Format profile : High@L4
Format settings, CABAC : Yes
Format settings, ReFrames : 4 frames
Codec ID : V_MPEG4/ISO/AVC
Duration : 2 h 27 min
Bit rate : 5 124 kb/s
Width : 1 920 pixels
Height : 1 012 pixels
Display aspect ratio : 1.897
Frame rate mode : Constant
Frame rate : 23.976 (24000/1001) FPS
Color space : YUV
Chroma subsampling : 4:2:0
Bit depth : 8 bits
Scan type : Progressive
Bits/(Pixel*Frame) : 0.110
Stream size : 5.29 GiB (93%)
Language : English
Default : Yes
Forced : No
Color range : Limited
Color primaries : BT.709
Transfer characteristics : BT.709
Matrix coefficients : BT.709

Audio
ID : 2
Format : AC-3
Format/Info : Audio Coding 3
Mode extension : CM (complete main)
Format settings, Endianness : Big
Codec ID : A_AC3
Duration : 2 h 27 min
Bit rate mode : Constant
Bit rate : 384 kb/s
Channel(s) : 6 channels
Channel positions : Front: L C R, Side: L R, LFE
Sampling rate : 48.0 kHz
Frame rate : 31.250 FPS (1536 spf)
Bit depth : 16 bits
Compression mode : Lossy
Delay relative to video : -43 ms
Stream size : 405 MiB (7%)
Language : English
Default : Yes
Forced : No

Menu
00:00:00.000 : en:1
00:10:35.000 : en:2
00:17:09.000 : en:3
00:26:54.000 : en:4
00:35:53.000 : en:5
00:49:14.000 : en:6
00:59:56.000 : en:7
01:10:18.000 : en:8
01:17:01.000 : en:9
01:28:22.000 : en:10
01:39:02.000 : en:11
01:46:19.000 : en:12
01:55:37.000 : en:13
02:03:02.000 : en:14
02:13:52.000 : en:15
02:19:38.000 : en:16



HDRip Screenshots

Mission: Impossible - Fallout (2018) [IMAX]

Mission: Impossible - Fallout (2018) [IMAX]

Mission: Impossible - Fallout (2018) [IMAX]


WEB-DL 720p Screenshots

Mission: Impossible - Fallout (2018) [IMAX]

Mission: Impossible - Fallout (2018) [IMAX]

Mission: Impossible - Fallout (2018) [IMAX]


WEB-DL 1080p Screenshots

Mission: Impossible - Fallout (2018) [IMAX]

Mission: Impossible - Fallout (2018) [IMAX]

Mission: Impossible - Fallout (2018) [IMAX]


Come Visit My Blog (•‿•)