Mission: Impossible - Fallout (2018) [4K, Ultra HD]

Posted By: Without
2160p (4k UHD) / BluRay Remux IMDb
Mission: Impossible - Fallout (2018) [4K, Ultra HD]

Mission: Impossible - Fallout (2018)
4K UHD Remux | MKV | 3840x2160 | HEVC@61.5 Mb/s | English TrueHD@5026 kb/s Kbps (8 ch)
English AC3@640 Kbps (6 ch) | English AC3@224 Kbps (Commentary) (2 ch) | 2 h 27 min | 71.3 GB
Subs: English, Danish, Dutch, Finnish, French, Spanish, Norwegian, Portuguese, Swedish
Genre: Action | Adventure | Thriller

Ethan Hunt and his IMF team, along with some familiar allies, race against time after a mission gone wrong.

IMDB - 2 nominations.


General
Mission.Impossible.Fallout.2018.2160p.UHD.BluRay.Remux.HDR.HEVC.Atmos-PmP.mkv
Format : Matroska
Format version : Version 4 / Version 2
File size : 71.3 GiB
Duration : 2 h 27 min
Overall bit rate mode : Variable
Overall bit rate : 69.3 Mb/s
Encoded date : UTC 2018-11-24 12:37:45
Writing application : mkvmerge v26.0.0 ('In The Game') 64-bit
Writing library : libebml v1.3.6 + libmatroska v1.4.9

Video
ID : 1
Format : HEVC
Format/Info : High Efficiency Video Coding
Format profile : Main 10@L5.1@High
Codec ID : V_MPEGH/ISO/HEVC
Duration : 2 h 27 min
Bit rate : 61.5 Mb/s
Width : 3 840 pixels
Height : 2 160 pixels
Display aspect ratio : 16:9
Frame rate mode : Constant
Frame rate : 23.976 (24000/1001) FPS
Color space : YUV
Chroma subsampling : 4:2:0 (Type 2)
Bit depth : 10 bits
Bits/(Pixel*Frame) : 0.309
Stream size : 63.3 GiB (89%)
Title : HEVC Video / 61465 kbps / 2160p / 23.976 fps / 16:9 / Main 10 @ Level 5.1 @ High / 4:2:0 / 10 bits / HDR10 / Limited Range / BT.2020
Language : English
Default : Yes
Forced : No
Color range : Limited
Color primaries : BT.2020
Transfer characteristics : SMPTE ST 2084
Matrix coefficients : BT.2020 non-constant
Mastering display color primaries : R: x=0.680000 y=0.320000, G: x=0.265000 y=0.690000, B: x=0.150000 y=0.060000, White point: x=0.312700 y=0.329000
Mastering display luminance : min: 0.0001 cd/m2, max: 1000.0000 cd/m2

Audio #1
ID : 2
Format : Atmos / TrueHD
Codec ID : A_TRUEHD
Duration : 2 h 27 min
Bit rate mode : Variable
Bit rate : 5 026 kb/s
Maximum bit rate : 8 175 kb/s
Channel(s) : Object Based / 8 channels
Channel positions : Object Based / Front: L C R, Side: L R, Back: L R, LFE
Sampling rate : / 48.0 kHz
Frame rate : 1 200.000 FPS (40 spf)
Compression mode : Lossless
Stream size : 5.17 GiB (7%)
Title : Dolby TrueHD/Atmos Audio / 7.1 / 48 kHz / 5026 kbps / 24-bit
Language : English
Default : Yes
Forced : No

Audio #2
ID : 3
Format : AC-3
Format/Info : Audio Coding 3
Mode extension : CM (complete main)
Format settings, Endianness : Big
Codec ID : A_AC3
Duration : 2 h 27 min
Bit rate mode : Constant
Bit rate : 640 kb/s
Channel(s) : 6 channels
Channel positions : Front: L C R, Side: L R, LFE
Sampling rate : 48.0 kHz
Frame rate : 31.250 FPS (1536 spf)
Bit depth : 16 bits
Compression mode : Lossy
Stream size : 675 MiB (1%)
Title : Compatibility Track / Dolby Digital Audio / 5.1-EX / 48 kHz / 640 kbps
Language : English
Default : No
Forced : No

Audio #3
ID : 4
Format : AC-3
Format/Info : Audio Coding 3
Mode extension : CM (complete main)
Format settings, Endianness : Big
Codec ID : A_AC3
Duration : 2 h 27 min
Bit rate mode : Constant
Bit rate : 224 kb/s
Channel(s) : 2 channels
Channel positions : Front: L R
Sampling rate : 48.0 kHz
Frame rate : 31.250 FPS (1536 spf)
Bit depth : 16 bits
Compression mode : Lossy
Stream size : 236 MiB (0%)
Title : Commentary by director Christopher McQuarrie and actor Tom Cruise
Language : English
Default : No
Forced : No

Audio #4
ID : 5
Format : AC-3
Format/Info : Audio Coding 3
Mode extension : CM (complete main)
Format settings, Endianness : Big
Codec ID : A_AC3
Duration : 2 h 27 min
Bit rate mode : Constant
Bit rate : 224 kb/s
Channel(s) : 2 channels
Channel positions : Front: L R
Sampling rate : 48.0 kHz
Frame rate : 31.250 FPS (1536 spf)
Bit depth : 16 bits
Compression mode : Lossy
Stream size : 236 MiB (0%)
Title : Commentary by director Christopher McQuarrie and editor Eddie Hamilton
Language : English
Default : No
Forced : No

Audio #5
ID : 6
Format : AC-3
Format/Info : Audio Coding 3
Mode extension : CM (complete main)
Format settings, Endianness : Big
Codec ID : A_AC3
Duration : 2 h 27 min
Bit rate mode : Constant
Bit rate : 224 kb/s
Channel(s) : 2 channels
Channel positions : Front: L R
Sampling rate : 48.0 kHz
Frame rate : 31.250 FPS (1536 spf)
Bit depth : 16 bits
Compression mode : Lossy
Stream size : 236 MiB (0%)
Title : Commentary by composer Lorne Balfe
Language : English
Default : No
Forced : No

Text #1
ID : 7
Format : PGS
Codec ID : S_HDMV/PGS
Codec ID/Info : Picture based subtitle format used on BDs/HD-DVDs
Duration : 32 min 10 s
Bit rate : 596 b/s
Count of elements : 40
Stream size : 141 KiB (0%)
Title : Forced for non-English dialogue
Language : English
Default : Yes
Forced : Yes

Text #2
ID : 8
Format : PGS
Codec ID : S_HDMV/PGS
Codec ID/Info : Picture based subtitle format used on BDs/HD-DVDs
Duration : 2 h 19 min
Bit rate : 28.4 kb/s
Count of elements : 3111
Stream size : 28.3 MiB (0%)
Language : English
Default : No
Forced : No

Text #3
ID : 9
Format : PGS
Codec ID : S_HDMV/PGS
Codec ID/Info : Picture based subtitle format used on BDs/HD-DVDs
Duration : 2 h 19 min
Bit rate : 33.7 kb/s
Count of elements : 3747
Stream size : 33.5 MiB (0%)
Title : SDH
Language : English
Default : No
Forced : No

Text #4
ID : 10
Format : PGS
Codec ID : S_HDMV/PGS
Codec ID/Info : Picture based subtitle format used on BDs/HD-DVDs
Duration : 2 h 26 min
Bit rate : 23.6 kb/s
Count of elements : 2225
Stream size : 24.8 MiB (0%)
Language : Danish
Default : No
Forced : No

Text #5
ID : 11
Format : PGS
Codec ID : S_HDMV/PGS
Codec ID/Info : Picture based subtitle format used on BDs/HD-DVDs
Duration : 2 h 26 min
Bit rate : 23.0 kb/s
Count of elements : 2350
Stream size : 24.2 MiB (0%)
Language : Dutch
Default : No
Forced : No

Text #6
ID : 12
Format : PGS
Codec ID : S_HDMV/PGS
Codec ID/Info : Picture based subtitle format used on BDs/HD-DVDs
Duration : 2 h 26 min
Bit rate : 24.7 kb/s
Count of elements : 3148
Stream size : 25.9 MiB (0%)
Language : Finnish
Default : No
Forced : No

Text #7
ID : 13
Format : PGS
Codec ID : S_HDMV/PGS
Codec ID/Info : Picture based subtitle format used on BDs/HD-DVDs
Duration : 2 h 26 min
Bit rate : 27.1 kb/s
Count of elements : 3335
Stream size : 28.5 MiB (0%)
Title : Canadian
Language : French
Default : No
Forced : No

Text #8
ID : 14
Format : PGS
Codec ID : S_HDMV/PGS
Codec ID/Info : Picture based subtitle format used on BDs/HD-DVDs
Duration : 2 h 26 min
Bit rate : 21.9 kb/s
Count of elements : 2895
Stream size : 23.0 MiB (0%)
Title : Parisian
Language : French
Default : No
Forced : No

Text #9
ID : 15
Format : PGS
Codec ID : S_HDMV/PGS
Codec ID/Info : Picture based subtitle format used on BDs/HD-DVDs
Duration : 2 h 26 min
Bit rate : 26.5 kb/s
Count of elements : 2837
Stream size : 27.8 MiB (0%)
Title : Castilian
Language : Spanish
Default : No
Forced : No

Text #10
ID : 16
Format : PGS
Codec ID : S_HDMV/PGS
Codec ID/Info : Picture based subtitle format used on BDs/HD-DVDs
Duration : 2 h 26 min
Bit rate : 25.7 kb/s
Count of elements : 2790
Stream size : 27.0 MiB (0%)
Title : Latin American
Language : Spanish
Default : No
Forced : No

Text #11
ID : 17
Format : PGS
Codec ID : S_HDMV/PGS
Codec ID/Info : Picture based subtitle format used on BDs/HD-DVDs
Duration : 2 h 26 min
Bit rate : 23.5 kb/s
Count of elements : 2780
Stream size : 24.6 MiB (0%)
Language : Norwegian
Default : No
Forced : No

Text #12
ID : 18
Format : PGS
Codec ID : S_HDMV/PGS
Codec ID/Info : Picture based subtitle format used on BDs/HD-DVDs
Duration : 2 h 26 min
Bit rate : 21.5 kb/s
Count of elements : 2752
Stream size : 22.6 MiB (0%)
Title : Brazilian
Language : Portuguese
Default : No
Forced : No

Text #13
ID : 19
Format : PGS
Codec ID : S_HDMV/PGS
Codec ID/Info : Picture based subtitle format used on BDs/HD-DVDs
Duration : 2 h 26 min
Bit rate : 23.6 kb/s
Count of elements : 2759
Stream size : 24.7 MiB (0%)
Language : Swedish
Default : No
Forced : No

Text #14
ID : 20
Format : PGS
Codec ID : S_HDMV/PGS
Codec ID/Info : Picture based subtitle format used on BDs/HD-DVDs
Duration : 2 h 27 min
Bit rate : 78.9 kb/s
Count of elements : 6950
Stream size : 83.1 MiB (0%)
Title : Commentary by director Christopher McQuarrie and actor Tom Cruise
Language : English
Default : No
Forced : No

Text #15
ID : 21
Format : PGS
Codec ID : S_HDMV/PGS
Codec ID/Info : Picture based subtitle format used on BDs/HD-DVDs
Duration : 2 h 27 min
Bit rate : 70.8 kb/s
Count of elements : 6832
Stream size : 74.6 MiB (0%)
Title : Commentary by director Christopher McQuarrie and actor Tom Cruise (Parisian)
Language : French
Default : No
Forced : No

Text #16
ID : 22
Format : PGS
Codec ID : S_HDMV/PGS
Codec ID/Info : Picture based subtitle format used on BDs/HD-DVDs
Duration : 2 h 27 min
Bit rate : 69.9 kb/s
Count of elements : 6952
Stream size : 73.6 MiB (0%)
Title : Commentary by director Christopher McQuarrie and actor Tom Cruise (Canadian)
Language : French
Default : No
Forced : No

Text #17
ID : 23
Format : PGS
Codec ID : S_HDMV/PGS
Codec ID/Info : Picture based subtitle format used on BDs/HD-DVDs
Duration : 2 h 27 min
Bit rate : 72.1 kb/s
Count of elements : 6952
Stream size : 75.9 MiB (0%)
Title : Commentary by director Christopher McQuarrie and actor Tom Cruise (Brazilian)
Language : Portuguese
Default : No
Forced : No

Text #18
ID : 24
Format : PGS
Codec ID : S_HDMV/PGS
Codec ID/Info : Picture based subtitle format used on BDs/HD-DVDs
Duration : 2 h 27 min
Bit rate : 71.8 kb/s
Count of elements : 6952
Stream size : 75.7 MiB (0%)
Title : Commentary by director Christopher McQuarrie and actor Tom Cruise (Castilian)
Language : Spanish
Default : No
Forced : No

Text #19
ID : 25
Format : PGS
Codec ID : S_HDMV/PGS
Codec ID/Info : Picture based subtitle format used on BDs/HD-DVDs
Duration : 2 h 27 min
Bit rate : 71.9 kb/s
Count of elements : 6952
Stream size : 75.8 MiB (0%)
Title : Commentary by director Christopher McQuarrie and actor Tom Cruise (Latin American)
Language : Spanish
Default : No
Forced : No

Text #20
ID : 26
Format : PGS
Codec ID : S_HDMV/PGS
Codec ID/Info : Picture based subtitle format used on BDs/HD-DVDs
Duration : 2 h 25 min
Bit rate : 80.2 kb/s
Count of elements : 6544
Stream size : 83.6 MiB (0%)
Title : Commentary by director Christopher McQuarrie and editor Eddie Hamilton
Language : English
Default : No
Forced : No

Text #21
ID : 27
Format : PGS
Codec ID : S_HDMV/PGS
Codec ID/Info : Picture based subtitle format used on BDs/HD-DVDs
Duration : 2 h 27 min
Bit rate : 70.2 kb/s
Count of elements : 6546
Stream size : 74.0 MiB (0%)
Title : Commentary by director Christopher McQuarrie and editor Eddie Hamilton (Parisian)
Language : French
Default : No
Forced : No

Text #22
ID : 28
Format : PGS
Codec ID : S_HDMV/PGS
Codec ID/Info : Picture based subtitle format used on BDs/HD-DVDs
Duration : 2 h 27 min
Bit rate : 74.2 kb/s
Count of elements : 6546
Stream size : 78.2 MiB (0%)
Title : Commentary by director Christopher McQuarrie and editor Eddie Hamilton (Canadian)
Language : French
Default : No
Forced : No

Text #23
ID : 29
Format : PGS
Codec ID : S_HDMV/PGS
Codec ID/Info : Picture based subtitle format used on BDs/HD-DVDs
Duration : 2 h 27 min
Bit rate : 75.1 kb/s
Count of elements : 6546
Stream size : 79.2 MiB (0%)
Title : Commentary by director Christopher McQuarrie and editor Eddie Hamilton (Brazilian)
Language : Portuguese
Default : No
Forced : No

Text #24
ID : 30
Format : PGS
Codec ID : S_HDMV/PGS
Codec ID/Info : Picture based subtitle format used on BDs/HD-DVDs
Duration : 2 h 27 min
Bit rate : 71.0 kb/s
Count of elements : 6546
Stream size : 74.8 MiB (0%)
Title : Commentary by director Christopher McQuarrie and editor Eddie Hamilton (Castilian)
Language : Spanish
Default : No
Forced : No

Text #25
ID : 31
Format : PGS
Codec ID : S_HDMV/PGS
Codec ID/Info : Picture based subtitle format used on BDs/HD-DVDs
Duration : 2 h 27 min
Bit rate : 71.2 kb/s
Count of elements : 6546
Stream size : 75.0 MiB (0%)
Title : Commentary by director Christopher McQuarrie and editor Eddie Hamilton (Latin American)
Language : Spanish
Default : No
Forced : No

Text #26
ID : 32
Format : PGS
Codec ID : S_HDMV/PGS
Codec ID/Info : Picture based subtitle format used on BDs/HD-DVDs
Duration : 2 h 21 min
Bit rate : 39.9 kb/s
Count of elements : 3662
Stream size : 40.3 MiB (0%)
Title : Commentary by composer Lorne Balfe
Language : English
Default : No
Forced : No

Text #27
ID : 33
Format : PGS
Codec ID : S_HDMV/PGS
Codec ID/Info : Picture based subtitle format used on BDs/HD-DVDs
Duration : 2 h 27 min
Bit rate : 39.6 kb/s
Count of elements : 3658
Stream size : 41.7 MiB (0%)
Title : Commentary by composer Lorne Balfe (Parisian)
Language : French
Default : No
Forced : No

Text #28
ID : 34
Format : PGS
Codec ID : S_HDMV/PGS
Codec ID/Info : Picture based subtitle format used on BDs/HD-DVDs
Duration : 2 h 27 min
Bit rate : 39.6 kb/s
Count of elements : 3664
Stream size : 41.7 MiB (0%)
Title : Commentary by composer Lorne Balfe (Canadian)
Language : French
Default : No
Forced : No

Text #29
ID : 35
Format : PGS
Codec ID : S_HDMV/PGS
Codec ID/Info : Picture based subtitle format used on BDs/HD-DVDs
Duration : 2 h 27 min
Bit rate : 38.0 kb/s
Count of elements : 3664
Stream size : 40.1 MiB (0%)
Title : Commentary by composer Lorne Balfe (Brazilian)
Language : Portuguese
Default : No
Forced : No

Text #30
ID : 36
Format : PGS
Codec ID : S_HDMV/PGS
Codec ID/Info : Picture based subtitle format used on BDs/HD-DVDs
Duration : 2 h 27 min
Bit rate : 36.5 kb/s
Count of elements : 3664
Stream size : 38.5 MiB (0%)
Title : Commentary by composer Lorne Balfe (Castilian)
Language : Spanish
Default : No
Forced : No

Text #31
ID : 37
Format : PGS
Codec ID : S_HDMV/PGS
Codec ID/Info : Picture based subtitle format used on BDs/HD-DVDs
Duration : 2 h 27 min
Bit rate : 39.1 kb/s
Count of elements : 3664
Stream size : 41.2 MiB (0%)
Title : Commentary by composer Lorne Balfe (Latin American)
Language : Spanish
Default : No
Forced : No

Menu
00:00:00.000 : en:Chapter 1
00:10:37.011 : en:Chapter 2
00:17:11.405 : en:Chapter 3
00:26:57.241 : en:Chapter 4
00:35:56.654 : en:Chapter 5
00:49:18.414 : en:Chapter 6
01:00:00.806 : en:Chapter 7
01:10:23.719 : en:Chapter 8
01:17:07.289 : en:Chapter 9
01:28:28.470 : en:Chapter 10
01:39:09.652 : en:Chapter 11
01:46:26.547 : en:Chapter 12
01:55:45.564 : en:Chapter 13
02:03:10.592 : en:Chapter 14
02:14:00.908 : en:Chapter 15
02:19:48.088 : en:Chapter 16



Screenshots

Mission: Impossible - Fallout (2018) [4K, Ultra HD]

Mission: Impossible - Fallout (2018) [4K, Ultra HD]

Mission: Impossible - Fallout (2018) [4K, Ultra HD]

Mission: Impossible - Fallout (2018) [4K, Ultra HD]

Mission: Impossible - Fallout (2018) [4K, Ultra HD]

Mission: Impossible - Fallout (2018) [4K, Ultra HD]


Come Visit My Blog (•‿•)