Mission: Impossible - Fallout (2018) [IMAX]

Posted By: Without
1080p (FullHD) / BDRip IMDb
Mission: Impossible - Fallout (2018) [IMAX]

Mission: Impossible - Fallout (2018)
BRRip | AVI | 720x384 | XviD@1149 kb/s | English AC3@384 kb/s
6 channels | 2 h 27 min | 1.58 GB
BDRip 720p | MKV | 1280x674 | AVC@7830 kb/s | English AC3@640 kb/s
Subs: English, Chinese | 6 channels | 2 h 27 min | 8.87 GB
BDRip 1080p | MKV | 1920x1016 | AVC@9483 kb/s | English AC3@640 kb/s
6 channels | 2 h 27 min | 10.6 GB
Genre: Action | Adventure | Thriller

Ethan Hunt and his IMF team, along with some familiar allies, race against time after a mission gone wrong.



Variable AR due to IMAX scenes.

General
Mission.Impossible.Fallout.2018.IMAX.BDRip.XviD.AC3-EVO.avi
Format : AVI
Format/Info : Audio Video Interleave
File size : 1.59 GiB
Duration : 2 h 27 min
Overall bit rate : 1 542 kb/s
Writing library : VirtualDub build 32593/release

Video
ID : 0
Format : MPEG-4 Visual
Format profile : Advanced Simple@L5
Format settings, BVOP : 2
Format settings, QPel : No
Format settings, GMC : No warppoints
Format settings, Matrix : Default (H.263)
Muxing mode : Packed bitstream
Codec ID : XVID
Codec ID/Hint : XviD
Duration : 2 h 27 min
Bit rate : 1 149 kb/s
Width : 720 pixels
Height : 384 pixels
Display aspect ratio : 1.85:1
Frame rate : 23.976 (24000/1001) FPS
Color space : YUV
Chroma subsampling : 4:2:0
Bit depth : 8 bits
Scan type : Progressive
Compression mode : Lossy
Bits/(Pixel*Frame) : 0.173
Stream size : 1.18 GiB (74%)
Writing library : XviD 66

Audio
ID : 1
Format : AC-3
Format/Info : Audio Coding 3
Mode extension : CM (complete main)
Format settings, Endianness : Big
Codec ID : 2000
Duration : 2 h 27 min
Bit rate mode : Constant
Bit rate : 384 kb/s
Channel(s) : 6 channels
Channel positions : Front: L C R, Side: L R, LFE
Sampling rate : 48.0 kHz
Frame rate : 31.250 FPS (1536 spf)
Bit depth : 16 bits
Compression mode : Lossy
Stream size : 405 MiB (25%)
Alignment : Aligned on interleaves
Interleave, duration : 42 ms (1.00 video frame)
Interleave, preload duration : 512 ms


General
Mission.Impossible.Fallout.2018.BluRay.720p.AC3.x264-CHD.mkv
Format : Matroska
Format version : Version 4 / Version 2
File size : 8.88 GiB
Duration : 2 h 27 min
Overall bit rate : 8 622 kb/s
Encoded date : UTC 2018-11-14 10:40:13
Writing application : mkvmerge v21.0.0 ('Tardigrades Will Inherit The Earth') 64-bit
Writing library : libebml v1.3.5 + libmatroska v1.4.8

Video
ID : 1
Format : AVC
Format/Info : Advanced Video Codec
Format profile : High@L4.1
Format settings, CABAC : Yes
Format settings, ReFrames : 9 frames
Codec ID : V_MPEG4/ISO/AVC
Duration : 2 h 27 min
Bit rate : 7 830 kb/s
Width : 1 280 pixels
Height : 674 pixels
Display aspect ratio : 1.899
Frame rate mode : Constant
Frame rate : 23.976 (24000/1001) FPS
Color space : YUV
Chroma subsampling : 4:2:0
Bit depth : 8 bits
Scan type : Progressive
Bits/(Pixel*Frame) : 0.379
Stream size : 8.06 GiB (91%)
Writing library : x264 core 155 r2901 7d0ff22
Encoding settings : cabac=1 / ref=9 / deblock=1:-3:-3 / analyse=0x3:0x113 / me=umh / subme=10 / psy=1 / psy_rd=1.00:0.05 / mixed_ref=1 / me_range=32 / chroma_me=1 / trellis=2 / 8x8dct=1 / cqm=0 / deadzone=21,11 / fast_pskip=0 / chroma_qp_offset=-2 / threads=18 / lookahead_threads=3 / sliced_threads=0 / nr=0 / decimate=1 / interlaced=0 / bluray_compat=0 / constrained_intra=0 / bframes=8 / b_pyramid=2 / b_adapt=2 / b_bias=0 / direct=3 / weightb=1 / open_gop=0 / weightp=2 / keyint=250 / keyint_min=23 / scenecut=40 / intra_refresh=0 / rc_lookahead=40 / rc=crf / mbtree=0 / crf=17.0 / qcomp=0.60 / qpmin=0 / qpmax=69 / qpstep=4 / vbv_maxrate=30000 / vbv_bufsize=30000 / crf_max=0.0 / nal_hrd=none / filler=0 / ip_ratio=1.40 / pb_ratio=1.30 / aq=3:1.00
Default : Yes
Forced : No
Color range : Limited
Matrix coefficients : BT.709

Audio
ID : 2
Format : AC-3
Format/Info : Audio Coding 3
Mode extension : CM (complete main)
Format settings, Endianness : Big
Codec ID : A_AC3
Duration : 2 h 27 min
Bit rate mode : Constant
Bit rate : 640 kb/s
Channel(s) : 6 channels
Channel positions : Front: L C R, Side: L R, LFE
Sampling rate : 48.0 kHz
Frame rate : 31.250 FPS (1536 spf)
Bit depth : 16 bits
Compression mode : Lossy
Stream size : 675 MiB (7%)
Language : English
Default : Yes
Forced : No

Text #1
ID : 3
Format : PGS
Muxing mode : zlib
Codec ID : S_HDMV/PGS
Codec ID/Info : Picture based subtitle format used on BDs/HD-DVDs
Duration : 2 h 19 min
Bit rate : 29.7 kb/s
Count of elements : 3111
Stream size : 29.5 MiB (0%)
Language : English
Default : Yes
Forced : No

Text #2
ID : 4
Format : PGS
Muxing mode : zlib
Codec ID : S_HDMV/PGS
Codec ID/Info : Picture based subtitle format used on BDs/HD-DVDs
Duration : 2 h 19 min
Bit rate : 35.2 kb/s
Count of elements : 3747
Stream size : 35.1 MiB (0%)
Language : English
Default : No
Forced : No

Text #3
ID : 5
Format : PGS
Muxing mode : zlib
Codec ID : S_HDMV/PGS
Codec ID/Info : Picture based subtitle format used on BDs/HD-DVDs
Duration : 2 h 27 min
Bit rate : 82.4 kb/s
Count of elements : 6950
Stream size : 86.8 MiB (1%)
Language : English
Default : No
Forced : No

Text #4
ID : 6
Format : PGS
Muxing mode : zlib
Codec ID : S_HDMV/PGS
Codec ID/Info : Picture based subtitle format used on BDs/HD-DVDs
Duration : 2 h 25 min
Bit rate : 83.8 kb/s
Count of elements : 6544
Stream size : 87.3 MiB (1%)
Language : English
Default : No
Forced : No

Text #5
ID : 7
Format : PGS
Muxing mode : zlib
Codec ID : S_HDMV/PGS
Codec ID/Info : Picture based subtitle format used on BDs/HD-DVDs
Duration : 2 h 21 min
Bit rate : 41.6 kb/s
Count of elements : 3662
Stream size : 42.1 MiB (0%)
Language : English
Default : No
Forced : No

Text #6
ID : 8
Format : PGS
Muxing mode : zlib
Codec ID : S_HDMV/PGS
Codec ID/Info : Picture based subtitle format used on BDs/HD-DVDs
Duration : 2 h 19 min
Bit rate : 51.5 kb/s
Count of elements : 2129
Stream size : 51.3 MiB (1%)
Language : Chinese
Default : No
Forced : No

Text #7
ID : 9
Format : PGS
Muxing mode : zlib
Codec ID : S_HDMV/PGS
Codec ID/Info : Picture based subtitle format used on BDs/HD-DVDs
Duration : 2 h 19 min
Bit rate : 33.7 kb/s
Count of elements : 2127
Stream size : 33.6 MiB (0%)
Language : Chinese
Default : No
Forced : No

Text #8
ID : 10
Format : PGS
Muxing mode : zlib
Codec ID : S_HDMV/PGS
Codec ID/Info : Picture based subtitle format used on BDs/HD-DVDs
Duration : 2 h 19 min
Bit rate : 52.6 kb/s
Count of elements : 2129
Stream size : 52.4 MiB (1%)
Language : Chinese
Default : No
Forced : No

Text #9
ID : 11
Format : PGS
Muxing mode : zlib
Codec ID : S_HDMV/PGS
Codec ID/Info : Picture based subtitle format used on BDs/HD-DVDs
Duration : 2 h 19 min
Bit rate : 34.8 kb/s
Count of elements : 2127
Stream size : 34.6 MiB (0%)
Language : Chinese
Default : No
Forced : No

Menu
00:00:00.000 : en:00:00:00.000
00:10:37.011 : en:00:10:37.011
00:17:11.405 : en:00:17:11.405
00:26:57.241 : en:00:26:57.241
00:35:56.654 : en:00:35:56.654
00:49:18.414 : en:00:49:18.414
01:00:00.806 : en:01:00:00.806
01:10:23.719 : en:01:10:23.719
01:17:07.289 : en:01:17:07.289
01:28:28.470 : en:01:28:28.470
01:39:09.652 : en:01:39:09.652
01:46:26.547 : en:01:46:26.547
01:55:45.564 : en:01:55:45.564
02:03:10.592 : en:02:03:10.592
02:14:00.908 : en:02:14:00.908
02:19:48.088 : en:02:19:48.088


General
Mission.Impossible.Fallout.2018.IMAX.1080p.Bluray.X264-EVO.mkv
Format : Matroska
Format version : Version 4 / Version 2
File size : 10.6 GiB
Duration : 2 h 27 min
Overall bit rate : 10.3 Mb/s
Movie name : EVO
Encoded date : UTC 2018-11-14 02:11:38
Writing application : mkvmerge v6.7.0 ('Back to the Ground') 64bit built on Jan 8 2014 15:10:52
Writing library : libebml v1.3.0 + libmatroska v1.4.1

Video
ID : 1
Format : AVC
Format/Info : Advanced Video Codec
Format profile : High@L4.1
Format settings, CABAC : Yes
Format settings, ReFrames : 4 frames
Codec ID : V_MPEG4/ISO/AVC
Duration : 2 h 27 min
Bit rate : 9 483 kb/s
Nominal bit rate : 10 000 kb/s
Width : 1 920 pixels
Height : 1 016 pixels
Display aspect ratio : 1.890
Frame rate mode : Constant
Frame rate : 23.976 (24000/1001) FPS
Color space : YUV
Chroma subsampling : 4:2:0
Bit depth : 8 bits
Scan type : Progressive
Bits/(Pixel*Frame) : 0.203
Stream size : 9.76 GiB (92%)
Writing library : x264 core 155 r2893 b00bcaf
Encoding settings : cabac=1 / ref=1 / deblock=1:0:0 / analyse=0x3:0x113 / me=hex / subme=2 / psy=1 / psy_rd=1.00:0.00 / mixed_ref=0 / me_range=16 / chroma_me=1 / trellis=0 / 8x8dct=1 / cqm=0 / deadzone=21,11 / fast_pskip=1 / chroma_qp_offset=0 / threads=18 / lookahead_threads=6 / sliced_threads=0 / nr=0 / decimate=1 / interlaced=0 / bluray_compat=0 / constrained_intra=0 / bframes=3 / b_pyramid=2 / b_adapt=1 / b_bias=0 / direct=1 / weightb=1 / open_gop=0 / weightp=1 / keyint=240 / keyint_min=24 / scenecut=40 / intra_refresh=0 / rc_lookahead=10 / rc=abr / mbtree=1 / bitrate=10000 / ratetol=1.0 / qcomp=0.60 / qpmin=0 / qpmax=69 / qpstep=4 / vbv_maxrate=62500 / vbv_bufsize=78125 / nal_hrd=none / filler=0 / ip_ratio=1.40 / aq=1:1.00
Default : Yes
Forced : No
Color range : Limited
Color primaries : BT.709
Transfer characteristics : BT.709
Matrix coefficients : BT.709

Audio
ID : 2
Format : AC-3
Format/Info : Audio Coding 3
Mode extension : CM (complete main)
Format settings, Endianness : Big
Codec ID : A_AC3
Duration : 2 h 27 min
Bit rate mode : Constant
Bit rate : 640 kb/s
Channel(s) : 6 channels
Channel positions : Front: L C R, Side: L R, LFE
Sampling rate : 48.0 kHz
Frame rate : 31.250 FPS (1536 spf)
Bit depth : 16 bits
Compression mode : Lossy
Stream size : 675 MiB (6%)
Title : Surround
Language : English
Default : Yes
Forced : No

Menu
00:00:00.000 : :Chapter 1
00:10:37.011 : :Chapter 2
00:17:11.405 : :Chapter 3
00:26:57.241 : :Chapter 4
00:35:56.655 : :Chapter 5
00:49:18.414 : :Chapter 6
01:00:00.806 : :Chapter 7
01:10:23.720 : :Chapter 8
01:17:07.289 : :Chapter 9
01:28:28.470 : :Chapter 10
01:39:09.527 : :Chapter 11
01:46:26.547 : :Chapter 12
01:55:45.564 : :Chapter 13
02:03:10.592 : :Chapter 14
02:14:00.282 : :Chapter 15
02:19:48.088 : :Chapter 16



BRRip Screenshots

Mission: Impossible - Fallout (2018) [IMAX]

Mission: Impossible - Fallout (2018) [IMAX]

Mission: Impossible - Fallout (2018) [IMAX]

Mission: Impossible - Fallout (2018) [IMAX]


BDRip 720p Screenshots

Mission: Impossible - Fallout (2018) [IMAX]

Mission: Impossible - Fallout (2018) [IMAX]

Mission: Impossible - Fallout (2018) [IMAX]

Mission: Impossible - Fallout (2018) [IMAX]


BDRip 1080p Screenshots

Mission: Impossible - Fallout (2018) [IMAX]

Mission: Impossible - Fallout (2018) [IMAX]

Mission: Impossible - Fallout (2018) [IMAX]

Mission: Impossible - Fallout (2018) [IMAX]


Come Visit My Blog (•‿•)