Mission: Impossible - Fallout (2018)

Posted By: Without
1080p (FullHD) / BluRay Remux IMDb
Mission: Impossible - Fallout (2018)

Mission: Impossible - Fallout (2018)
BD-Remux | MKV | 1920x1080 | AVC@26.2 Mb/s | English TrueHD@5026 kb/s (8 ch)
English AC3@640 kb/s (6 ch), AC3@224 kb/s (Commentary) (2 ch) | 2 h 27 min | 34.5 GB
Subs: English, French, Portuguese, Spanish
Genre: Action | Adventure | Thriller

Ethan Hunt and his IMF team, along with some familiar allies, race against time after a mission gone wrong.

IMDB - 2 nominations.


General
Mission.Impossible.Fallout.2018.1080p.BluRay.REMUX.AVC.Atmos-EPSiLON.mkv
Format : Matroska
Format version : Version 4 / Version 2
File size : 34.5 GiB
Duration : 2 h 27 min
Overall bit rate mode : Variable
Overall bit rate : 33.5 Mb/s
Movie name : Mission: Impossible - Fallout (2018)
Encoded date : UTC 2018-11-14 14:25:44
Writing application : mkvmerge v28.2.0 ('The Awakening') 64-bit
Writing library : libebml v1.3.6 + libmatroska v1.4.9

Video
ID : 1
Format : AVC
Format/Info : Advanced Video Codec
Format profile : High@L4.1
Format settings, CABAC : Yes
Format settings, ReFrames : 4 frames
Codec ID : V_MPEG4/ISO/AVC
Duration : 2 h 27 min
Bit rate mode : Variable
Bit rate : 26.2 Mb/s
Maximum bit rate : 28.0 Mb/s
Width : 1 920 pixels
Height : 1 080 pixels
Display aspect ratio : 16:9
Frame rate mode : Constant
Frame rate : 23.976 (24000/1001) FPS
Color space : YUV
Chroma subsampling : 4:2:0
Bit depth : 8 bits
Scan type : Progressive
Bits/(Pixel*Frame) : 0.527
Stream size : 27.0 GiB (78%)
Title : MPEG-4 AVC Video / 26416 kbps / 1080p / 23.976 fps / 16:9 / High Profile 4.1
Language : English
Default : Yes
Forced : No

Audio #1
ID : 2
Format : Atmos / TrueHD
Codec ID : A_TRUEHD
Duration : 2 h 27 min
Bit rate mode : Variable
Bit rate : 5 026 kb/s
Maximum bit rate : 8 175 kb/s
Channel(s) : Object Based / 8 channels
Channel positions : Object Based / Front: L C R, Side: L R, Back: L R, LFE
Sampling rate : / 48.0 kHz
Frame rate : 1 200.000 FPS (40 spf)
Compression mode : Lossless
Stream size : 5.17 GiB (15%)
Title : Dolby TrueHD/Atmos Audio / 7.1 / 48 kHz / 5026 kbps / 24-bit
Language : English
Default : Yes
Forced : No

Audio #2
ID : 3
Format : AC-3
Format/Info : Audio Coding 3
Mode extension : CM (complete main)
Format settings, Endianness : Big
Codec ID : A_AC3
Duration : 2 h 27 min
Bit rate mode : Constant
Bit rate : 640 kb/s
Channel(s) : 6 channels
Channel positions : Front: L C R, Side: L R, LFE
Sampling rate : 48.0 kHz
Frame rate : 31.250 FPS (1536 spf)
Bit depth : 16 bits
Compression mode : Lossy
Stream size : 675 MiB (2%)
Title : Compatibility Track / Dolby Digital Audio / 5.1-EX / 48 kHz / 640 kbps
Language : English
Default : No
Forced : No

Audio #3
ID : 4
Format : AC-3
Format/Info : Audio Coding 3
Mode extension : CM (complete main)
Format settings, Endianness : Big
Codec ID : A_AC3
Duration : 2 h 27 min
Bit rate mode : Constant
Bit rate : 224 kb/s
Channel(s) : 2 channels
Channel positions : Front: L R
Sampling rate : 48.0 kHz
Frame rate : 31.250 FPS (1536 spf)
Bit depth : 16 bits
Compression mode : Lossy
Stream size : 236 MiB (1%)
Title : Commentary by director/writer/producer Christopher McQuarrie and actor/producer Tom Cruise
Language : English
Default : No
Forced : No

Audio #4
ID : 5
Format : AC-3
Format/Info : Audio Coding 3
Mode extension : CM (complete main)
Format settings, Endianness : Big
Codec ID : A_AC3
Duration : 2 h 27 min
Bit rate mode : Constant
Bit rate : 224 kb/s
Channel(s) : 2 channels
Channel positions : Front: L R
Sampling rate : 48.0 kHz
Frame rate : 31.250 FPS (1536 spf)
Bit depth : 16 bits
Compression mode : Lossy
Stream size : 236 MiB (1%)
Title : Commentary by director/writer/producer Christopher McQuarrie and editor Eddie Hamilton
Language : English
Default : No
Forced : No

Audio #5
ID : 6
Format : AC-3
Format/Info : Audio Coding 3
Mode extension : CM (complete main)
Format settings, Endianness : Big
Codec ID : A_AC3
Duration : 2 h 27 min
Bit rate mode : Constant
Bit rate : 224 kb/s
Channel(s) : 2 channels
Channel positions : Front: L R
Sampling rate : 48.0 kHz
Frame rate : 31.250 FPS (1536 spf)
Bit depth : 16 bits
Compression mode : Lossy
Stream size : 236 MiB (1%)
Title : Commentary by composer Lorne Balfe
Language : English
Default : No
Forced : No

Text #1
ID : 7
Format : PGS
Codec ID : S_HDMV/PGS
Codec ID/Info : Picture based subtitle format used on BDs/HD-DVDs
Duration : 32 min 10 s
Bit rate : 645 b/s
Count of elements : 40
Stream size : 152 KiB (0%)
Title : Forced
Language : English
Default : Yes
Forced : No

Text #2
ID : 8
Format : PGS
Codec ID : S_HDMV/PGS
Codec ID/Info : Picture based subtitle format used on BDs/HD-DVDs
Duration : 2 h 19 min
Bit rate : 29.7 kb/s
Count of elements : 3111
Stream size : 29.5 MiB (0%)
Language : English
Default : No
Forced : No

Text #3
ID : 9
Format : PGS
Codec ID : S_HDMV/PGS
Codec ID/Info : Picture based subtitle format used on BDs/HD-DVDs
Duration : 2 h 19 min
Bit rate : 35.2 kb/s
Count of elements : 3747
Stream size : 35.1 MiB (0%)
Title : SDH
Language : English
Default : No
Forced : No

Text #4
ID : 10
Format : PGS
Codec ID : S_HDMV/PGS
Codec ID/Info : Picture based subtitle format used on BDs/HD-DVDs
Duration : 2 h 19 min
Bit rate : 29.7 kb/s
Count of elements : 3327
Stream size : 29.6 MiB (0%)
Language : French
Default : No
Forced : No

Text #5
ID : 11
Format : PGS
Codec ID : S_HDMV/PGS
Codec ID/Info : Picture based subtitle format used on BDs/HD-DVDs
Duration : 2 h 19 min
Bit rate : 23.6 kb/s
Count of elements : 2750
Stream size : 23.5 MiB (0%)
Title : Brazilian
Language : Portuguese
Default : No
Forced : No

Text #6
ID : 12
Format : PGS
Codec ID : S_HDMV/PGS
Codec ID/Info : Picture based subtitle format used on BDs/HD-DVDs
Duration : 2 h 19 min
Bit rate : 28.2 kb/s
Count of elements : 2788
Stream size : 28.1 MiB (0%)
Title : Latin American
Language : Spanish
Default : No
Forced : No

Text #7
ID : 13
Format : PGS
Codec ID : S_HDMV/PGS
Codec ID/Info : Picture based subtitle format used on BDs/HD-DVDs
Duration : 2 h 27 min
Bit rate : 82.4 kb/s
Count of elements : 6950
Stream size : 86.8 MiB (0%)
Title : Commentary by director/writer/producer Christopher McQuarrie and actor/producer Tom Cruise
Language : English
Default : No
Forced : No

Text #8
ID : 14
Format : PGS
Codec ID : S_HDMV/PGS
Codec ID/Info : Picture based subtitle format used on BDs/HD-DVDs
Duration : 2 h 27 min
Bit rate : 72.8 kb/s
Count of elements : 6950
Stream size : 76.7 MiB (0%)
Title : Commentary by director/writer/producer Christopher McQuarrie and actor/producer Tom Cruise
Language : French
Default : No
Forced : No

Text #9
ID : 15
Format : PGS
Codec ID : S_HDMV/PGS
Codec ID/Info : Picture based subtitle format used on BDs/HD-DVDs
Duration : 2 h 27 min
Bit rate : 75.1 kb/s
Count of elements : 6950
Stream size : 79.0 MiB (0%)
Title : Commentary by director/writer/producer Christopher McQuarrie and actor/producer Tom Cruise (Brazilian)
Language : Portuguese
Default : No
Forced : No

Text #10
ID : 16
Format : PGS
Codec ID : S_HDMV/PGS
Codec ID/Info : Picture based subtitle format used on BDs/HD-DVDs
Duration : 2 h 27 min
Bit rate : 74.9 kb/s
Count of elements : 6950
Stream size : 78.9 MiB (0%)
Title : Commentary by director/writer/producer Christopher McQuarrie and actor/producer Tom Cruise (Latin American)
Language : Spanish
Default : No
Forced : No

Text #11
ID : 17
Format : PGS
Codec ID : S_HDMV/PGS
Codec ID/Info : Picture based subtitle format used on BDs/HD-DVDs
Duration : 2 h 25 min
Bit rate : 83.8 kb/s
Count of elements : 6544
Stream size : 87.3 MiB (0%)
Title : Commentary by director/writer/producer Christopher McQuarrie and editor Eddie Hamilton
Language : English
Default : No
Forced : No

Text #12
ID : 18
Format : PGS
Codec ID : S_HDMV/PGS
Codec ID/Info : Picture based subtitle format used on BDs/HD-DVDs
Duration : 2 h 25 min
Bit rate : 78.2 kb/s
Count of elements : 6544
Stream size : 81.5 MiB (0%)
Title : Commentary by director/writer/producer Christopher McQuarrie and editor Eddie Hamilton
Language : French
Default : No
Forced : No

Text #13
ID : 19
Format : PGS
Codec ID : S_HDMV/PGS
Codec ID/Info : Picture based subtitle format used on BDs/HD-DVDs
Duration : 2 h 25 min
Bit rate : 79.0 kb/s
Count of elements : 6544
Stream size : 82.4 MiB (0%)
Title : Commentary by director/writer/producer Christopher McQuarrie and editor Eddie Hamilton (Brazilian)
Language : Portuguese
Default : No
Forced : No

Text #14
ID : 20
Format : PGS
Codec ID : S_HDMV/PGS
Codec ID/Info : Picture based subtitle format used on BDs/HD-DVDs
Duration : 2 h 25 min
Bit rate : 74.9 kb/s
Count of elements : 6544
Stream size : 78.0 MiB (0%)
Title : Commentary by director/writer/producer Christopher McQuarrie and editor Eddie Hamilton (Latin American)
Language : Spanish
Default : No
Forced : No

Text #15
ID : 21
Format : PGS
Codec ID : S_HDMV/PGS
Codec ID/Info : Picture based subtitle format used on BDs/HD-DVDs
Duration : 2 h 21 min
Bit rate : 41.6 kb/s
Count of elements : 3662
Stream size : 42.1 MiB (0%)
Title : Commentary by composer Lorne Balfe
Language : English
Default : No
Forced : No

Text #16
ID : 22
Format : PGS
Codec ID : S_HDMV/PGS
Codec ID/Info : Picture based subtitle format used on BDs/HD-DVDs
Duration : 2 h 21 min
Bit rate : 43.0 kb/s
Count of elements : 3662
Stream size : 43.4 MiB (0%)
Title : Commentary by composer Lorne Balfe
Language : French
Default : No
Forced : No

Text #17
ID : 23
Format : PGS
Codec ID : S_HDMV/PGS
Codec ID/Info : Picture based subtitle format used on BDs/HD-DVDs
Duration : 2 h 21 min
Bit rate : 41.2 kb/s
Count of elements : 3662
Stream size : 41.7 MiB (0%)
Title : Commentary by composer Lorne Balfe (Brazilian)
Language : Portuguese
Default : No
Forced : No

Text #18
ID : 24
Format : PGS
Codec ID : S_HDMV/PGS
Codec ID/Info : Picture based subtitle format used on BDs/HD-DVDs
Duration : 2 h 21 min
Bit rate : 42.3 kb/s
Count of elements : 3662
Stream size : 42.8 MiB (0%)
Title : Commentary by composer Lorne Balfe (Latin American)
Language : Spanish
Default : No
Forced : No

Menu
00:00:00.000 : en:Chapter 1
00:10:37.011 : en:Chapter 2
00:17:11.405 : en:Chapter 3
00:26:57.241 : en:Chapter 4
00:35:56.654 : en:Chapter 5
00:49:18.414 : en:Chapter 6
01:00:00.806 : en:Chapter 7
01:10:23.719 : en:Chapter 8
01:17:07.289 : en:Chapter 9
01:28:28.470 : en:Chapter 10
01:39:09.652 : en:Chapter 11
01:46:26.547 : en:Chapter 12
01:55:45.564 : en:Chapter 13
02:03:10.592 : en:Chapter 14
02:14:00.908 : en:Chapter 15
02:19:48.088 : en:Chapter 16



Screenshots

Mission: Impossible - Fallout (2018)

Mission: Impossible - Fallout (2018)

Mission: Impossible - Fallout (2018)

Mission: Impossible - Fallout (2018)

Mission: Impossible - Fallout (2018)


Come Visit My Blog (•‿•)