MoMA - The Museum Of Modern Art: 50 Masterworks From The Collection (2011)

Posted By: ParRus
MoMA - The Museum Of Modern Art: 50 Masterworks From The Collection (2011)

MoMA - The Museum Of Modern Art: 50 Masterworks From The Collection (2011)
HDTV | English | MKV | 1280 x 720 | AVC ~6000 Kbps | 23.976 fps
DTS | 1510 kbps | 48.0 KHz | 2 channels | 00:25:01 | 1.31 GB
Genre: Documentary

Selected from the Museum's vast collection of modern and contemporary works, these fifty paintings reflect the vitality, genius, and complexity of MoMA's permanent collection. From Vincent van Gogh to Jasper Johns and from Paul Cézanne to Jackson Pollock, this collection provides a unique look into the vivid world of MoMA. Perfect for entertaining or everyday relaxing, Screen Dreams MoMA DVD adds a beautiful new dimension to any TV!
General
Complete name : Moma.the.Museum.of.Modern.Art.50.Masterworks.from.the.Collection.2011.mkv
Format : Matroska
Format version : Version 2
File size : 1.31 GiB
Duration : 25mn 1s
Overall bit rate : 7 519 Kbps
Encoded date : UTC 2013-02-13 09:08:59
Writing application : mkvmerge v5.8.0 ('No Sleep / Pillow') built on Sep 2 2012 15:37:04
Writing library : libebml v1.2.3 + libmatroska v1.3.0
Video #1
ID : 1
Format : AVC
Format/Info : Advanced Video Codec
Format profile : High@L4.1
Format settings, CABAC : Yes
Format settings, ReFrames : 5 frames
Codec ID : V_MPEG4/ISO/AVC
Duration : 25mn 1s
Bit rate : 6 000 Kbps
Width : 1 280 pixels
Height : 720 pixels
Display aspect ratio : 16:9
Frame rate : 23.976 fps
Color space : YUV
Chroma subsampling : 4:2:0
Bit depth : 8 bits
Scan type : Progressive
Bits/(Pixel*Frame) : 0.272
Stream size : 1.02 GiB (78%)
Writing library : x264 core 129 r2245 bc13772
Encoding settings : cabac=1 / ref=5 / deblock=1:-3:-3 / analyse=0x3:0x113 / me=umh / subme=9 / psy=1 / psy_rd=1.00:0.00 / mixed_ref=1 / me_range=16 / chroma_me=1 / trellis=2 / 8x8dct=1 / cqm=0 / deadzone=21,11 / fast_pskip=1 / chroma_qp_offset=-2 / threads=16 / lookahead_threads=2 / sliced_threads=0 / nr=0 / decimate=1 / interlaced=0 / bluray_compat=0 / constrained_intra=0 / bframes=3 / b_pyramid=2 / b_adapt=1 / b_bias=0 / direct=1 / weightb=1 / open_gop=0 / weightp=2 / keyint=240 / keyint_min=23 / scenecut=40 / intra_refresh=0 / rc_lookahead=50 / rc=abr / mbtree=1 / bitrate=6000 / ratetol=1.0 / qcomp=0.60 / qpmin=0 / qpmax=69 / qpstep=4 / ip_ratio=1.40 / aq=1:1.00
Language : English
Audio #2
ID : 2
Format : DTS
Format/Info : Digital Theater Systems
Codec ID : A_DTS
Duration : 25mn 1s
Bit rate mode : Constant
Bit rate : 1 510 Kbps
Channel(s) : 2 channels
Channel positions : Front: L R
Sampling rate : 48.0 KHz
Bit depth : 24 bits
Compression mode : Lossy
Stream size : 270 MiB (20%)
Language : English

ScreenShots

MoMA - The Museum Of Modern Art: 50 Masterworks From The Collection (2011)

MoMA - The Museum Of Modern Art: 50 Masterworks From The Collection (2011)

MoMA - The Museum Of Modern Art: 50 Masterworks From The Collection (2011)

MoMA - The Museum Of Modern Art: 50 Masterworks From The Collection (2011)

MoMA - The Museum Of Modern Art: 50 Masterworks From The Collection (2011)

For more, Visit my AH-blog

no mirrors please, Follow The Rules