Tags
Language
Tags

Modern Art: A Complete Guide (2003)

Posted By: Tutorial
SD / DVDRip
Modern Art: A Complete Guide (2003)

Modern Art: A Complete Guide (2003)
DVDRip | 720 x 480 | .MP4/AVC @ 1523 Kbps | 1h 39mn | English AAC 160 Kbps, 2 channels | 1.17 GB
Genre: Documentary, Arts

Aka The Challenge - A Tribute to Modern Art Herbert Kline's Oscar-nominated documentary (narrated by Orson Welles) A film using rare and unique footage of artists working in their studios and commenting on their work, including Chagall, Moore, Dali, De Kooning, Matisse, Picasso, Giacometti, Duchamp and Pollock. Aka The Challenge: A Tribute to Modern Art. An unprecedented film by Academy Award winner Herbert Kline detailing the revolution in art instigated by Cezanne that became MODERN ART. Features rare and unique footage of great modern artists in their studios creating and explaining their work with narration and illuminating commentary by Orson Welles. Visits the great collection at The Louvre, the Guggenheim and The Museum of Modern Art. Illustrates the growth and dynamism of Modern Art and each stylistic development Impressionism Expressionism Fauvism Cubism Futurism Dada Surrealism Pop Art Conceptualism

General
Complete name : Modern.Art.A.Complete.Guide.mp4
Format : MPEG-4
Format profile : Base Media
Codec ID : isom
File size : 1.17 GiB
Duration : 1h 39mn
Overall bit rate mode : Variable
Overall bit rate : 1 688 Kbps
Encoded date : UTC 2014-03-19 13:37:56
Tagged date : UTC 2014-03-19 13:37:56
Writing application : Lavf51.12.1

Video
ID : 1
Format : AVC
Format/Info : Advanced Video Codec
Format profile : Main@L3.0
Format settings, CABAC : Yes
Format settings, ReFrames : 1 frame
Format settings, GOP : M=1, N=12
Codec ID : avc1
Codec ID/Info : Advanced Video Coding
Duration : 1h 39mn
Bit rate : 1 523 Kbps
Width : 720 pixels
Height : 480 pixels
Display aspect ratio : 4:3
Frame rate mode : Constant
Frame rate : 25.000 fps
Standard : NTSC
Color space : YUV
Chroma subsampling : 4:2:0
Bit depth : 8 bits
Scan type : Progressive
Bits/(Pixel*Frame) : 0.176
Stream size : 1.06 GiB (90%)
Encoded date : UTC 2014-03-19 13:37:56
Tagged date : UTC 2014-03-19 13:37:56

Audio
ID : 2
Format : AAC
Format/Info : Advanced Audio Codec
Format profile : LC
Codec ID : 40
Duration : 1h 39mn
Bit rate mode : Variable
Bit rate : 160 Kbps
Channel(s) : 2 channels
Channel positions : Front: L R
Sampling rate : 48.0 KHz
Compression mode : Lossy
Stream size : 114 MiB (9%)
Encoded date : UTC 2014-03-19 13:37:56
Tagged date : UTC 2014-03-19 13:37:56
Screenshots

Modern Art: A Complete Guide (2003)

Modern Art: A Complete Guide (2003)

Modern Art: A Complete Guide (2003)

Welcome to my blog - daily update!

Modern Art: A Complete Guide (2003)