Molly's Game (2017)

Posted By: Tavaz
SD / DVDRip IMDb
Molly's Game (2017)

Molly's Game (2017)
DVDSCR | FANSUB French | 608x304 | MP4V-ES @ 581 kbps | MPEG Audio @ 112 kbps | 2 h 17 min | 1.78 GiB
Genre: Crime/Biography

Molly Bloom, a young skier and former Olympic hopeful becomes a successful entrepreneur (and a target of an FBI investigation) when she establishes a high-stakes, international poker game.

Mollys.Game.2017.FANSUB.VOSTFR.DVDSCR.XVID.AC3-NIKOo(1).avi (1.8 GB)
Mollys.Game.2017.FANSUB.VOSTFR.DVDSCR.XVID.AC3-NIKOo.avi (1.8 GB)



General
Complete name : ./Mollys.Game.2017.FANSUB.VOSTFR.DVDSCR.XVID.AC3-NIKOo(1).avi
Format : AVI
Format/Info : Audio Video Interleave
File size : 1.78 GiB
Duration : 2 h 17 min
Overall bit rate : 1 857 kb/s

Video
ID : 0
Format : MPEG-4 Visual
Format profile : Simple@L3
Format settings, BVOP : 1
Format settings, QPel : No
Format settings, GMC : No warppoints
Format settings, Matrix : Default (H.263)
Muxing mode : Packed bitstream
Codec ID : DX50
Codec ID/Hint : DivX 5
Duration : 2 h 17 min
Bit rate : 581 kb/s
Nominal bit rate : 4 854 kb/s
Width : 608 pixels
Height : 304 pixels
Display aspect ratio : 2.000
Frame rate : 25.000 FPS
Color space : YUV
Chroma subsampling : 4:2:0
Bit depth : 8 bits
Scan type : Progressive
Compression mode : Lossy
Bits/(Pixel*Frame) : 0.126
Stream size : 570 MiB (31%)
Writing library : XviD 1.1.2 (UTC 2006-11-01)

Audio
ID : 1
Format : MPEG Audio
Format version : Version 1
Format profile : Layer 3
Format settings : Joint stereo / MS Stereo
Mode : Joint stereo
Mode extension : MS Stereo
Codec ID : 55
Codec ID/Hint : MP3
Duration : 2 h 17 min
Bit rate mode : Constant
Bit rate : 112 kb/s
Channel(s) : 2 channels
Sampling rate : 48.0 kHz
Compression mode : Lossy
Delay relative to video : 1 ms
Stream size : 110 MiB (6%)
Alignment : Split accross interleaves
Interleave, duration : 24 ms (0.60 video frame)
Interleave, preload duration : 47 ms





Molly's Game (2017)


Molly's Game (2017)


Molly's Game (2017)


Molly's Game (2017)


Molly's Game (2017)