Tags
Language
Tags

Morocco (1930)

Posted By: Without
1080p (FullHD) / BDRip IMDb
Morocco (1930)

Morocco (1930)
BDRip 720p | MKV | 864x720 | AVC@6202 kb/s | English FLAC@569 kb/s
Subs: English | 1 channel | 1 h 32 min | 4.37 GB
BDRip 1080p | MKV | 1296x1080 | AVC@13.0 Mb/s | English FLAC@569 kb/s
Subs: English | 1 channel | 1 h 32 min | 8.74 GB
Genre: Drama, Romance

A cabaret singer and a Legionnaire fall in love, but their relationship is complicated by the results of his womanizing and due to the appearance of a rich man who wants her for himself.

IMDB - Nominated for 4 Oscars. Another 3 wins.


General
Morocco.1930.720p.BluRay.x264-DEPTH.mkv
Format : Matroska
Format version : Version 4 / Version 2
File size : 4.37 GiB
Duration : 1 h 32 min
Overall bit rate mode : Variable
Overall bit rate : 6 773 kb/s
Encoded date : UTC 2018-07-03 23:54:09
Writing application : mkvmerge v24.0.0 ('Beyond The Pale') 64-bit
Writing library : libebml v1.3.6 + libmatroska v1.4.9

Video
ID : 1
Format : AVC
Format/Info : Advanced Video Codec
Format profile : High@L4.1
Format settings, CABAC : Yes
Format settings, ReFrames : 13 frames
Codec ID : V_MPEG4/ISO/AVC
Duration : 1 h 32 min
Bit rate : 6 202 kb/s
Width : 864 pixels
Height : 720 pixels
Display aspect ratio : 1.200
Frame rate mode : Constant
Frame rate : 23.976 (24000/1001) FPS
Color space : YUV
Chroma subsampling : 4:2:0
Bit depth : 8 bits
Scan type : Progressive
Bits/(Pixel*Frame) : 0.416
Stream size : 4.00 GiB (92%)
Writing library : x264 core 155 r2901 7d0ff22
Encoding settings : cabac=1 / ref=13 / deblock=1:-3:-3 / analyse=0x3:0x133 / me=umh / subme=10 / psy=1 / psy_rd=1.00:0.15 / mixed_ref=1 / me_range=24 / chroma_me=1 / trellis=2 / 8x8dct=1 / cqm=0 / deadzone=21,11 / fast_pskip=1 / chroma_qp_offset=-3 / threads=22 / lookahead_threads=3 / sliced_threads=0 / nr=0 / decimate=1 / interlaced=0 / bluray_compat=0 / constrained_intra=0 / bframes=8 / b_pyramid=2 / b_adapt=2 / b_bias=0 / direct=3 / weightb=1 / open_gop=0 / weightp=2 / keyint=240 / keyint_min=24 / scenecut=40 / intra_refresh=0 / rc_lookahead=60 / rc=2pass / mbtree=1 / bitrate=6202 / ratetol=1.0 / qcomp=0.60 / qpmin=0 / qpmax=69 / qpstep=4 / cplxblur=20.0 / qblur=0.5 / ip_ratio=1.40 / aq=1:0.80
Default : Yes
Forced : No

Audio
ID : 2
Format : FLAC
Format/Info : Free Lossless Audio Codec
Codec ID : A_FLAC
Duration : 1 h 32 min
Bit rate mode : Variable
Bit rate : 569 kb/s
Channel(s) : 1 channel
Channel positions : Front: C
Sampling rate : 48.0 kHz
Frame rate : 11.719 FPS (4096 spf)
Bit depth : 24 bits
Stream size : 376 MiB (8%)
Writing library : libFLAC 1.2.1 (UTC 2007-09-17)
Language : English
Default : Yes
Forced : No

Text #1
ID : 3
Format : UTF-8
Codec ID : S_TEXT/UTF8
Codec ID/Info : UTF-8 Plain Text
Duration : 1 h 24 min
Bit rate : 27 b/s
Count of elements : 508
Stream size : 17.1 KiB (0%)
Language : English
Default : No
Forced : No

Text #2
ID : 4
Format : UTF-8
Codec ID : S_TEXT/UTF8
Codec ID/Info : UTF-8 Plain Text
Duration : 1 h 30 min
Bit rate : 31 b/s
Count of elements : 657
Stream size : 20.6 KiB (0%)
Title : SDH
Language : English
Default : No
Forced : No

Menu
00:00:00.000 : en:00:00:00.000
00:01:53.864 : en:00:01:53.864
00:07:04.007 : en:00:07:04.007
00:10:02.602 : en:00:10:02.602
00:20:20.845 : en:00:20:20.845
00:26:44.686 : en:00:26:44.686
00:39:26.614 : en:00:39:26.614
00:46:52.184 : en:00:46:52.184
00:54:29.975 : en:00:54:29.975
01:01:55.712 : en:01:01:55.712
01:05:39.936 : en:01:05:39.936
01:09:25.453 : en:01:09:25.453
01:13:04.880 : en:01:13:04.880
01:18:00.509 : en:01:18:00.509
01:20:34.288 : en:01:20:34.288
01:26:42.155 : en:01:26:42.155

General
Morocco.1930.1080p.BluRay.x264-DEPTH.mkv
Format : Matroska
Format version : Version 4 / Version 2
File size : 8.74 GiB
Duration : 1 h 32 min
Overall bit rate mode : Variable
Overall bit rate : 13.6 Mb/s
Encoded date : UTC 2018-07-03 23:57:35
Writing application : mkvmerge v24.0.0 ('Beyond The Pale') 64-bit
Writing library : libebml v1.3.6 + libmatroska v1.4.9

Video
ID : 1
Format : AVC
Format/Info : Advanced Video Codec
Format profile : High@L4.1
Format settings, CABAC : Yes
Format settings, ReFrames : 5 frames
Codec ID : V_MPEG4/ISO/AVC
Duration : 1 h 32 min
Bit rate : 13.0 Mb/s
Width : 1 296 pixels
Height : 1 080 pixels
Display aspect ratio : 1.200
Frame rate mode : Constant
Frame rate : 23.976 (24000/1001) FPS
Color space : YUV
Chroma subsampling : 4:2:0
Bit depth : 8 bits
Scan type : Progressive
Bits/(Pixel*Frame) : 0.387
Stream size : 8.37 GiB (96%)
Writing library : x264 core 155 r2901 7d0ff22
Encoding settings : cabac=1 / ref=5 / deblock=1:-3:-3 / analyse=0x3:0x133 / me=umh / subme=10 / psy=1 / psy_rd=1.00:0.15 / mixed_ref=1 / me_range=24 / chroma_me=1 / trellis=2 / 8x8dct=1 / cqm=0 / deadzone=21,11 / fast_pskip=1 / chroma_qp_offset=-3 / threads=34 / lookahead_threads=5 / sliced_threads=0 / nr=0 / decimate=1 / interlaced=0 / bluray_compat=0 / constrained_intra=0 / bframes=8 / b_pyramid=2 / b_adapt=2 / b_bias=0 / direct=3 / weightb=1 / open_gop=0 / weightp=2 / keyint=240 / keyint_min=24 / scenecut=40 / intra_refresh=0 / rc_lookahead=60 / rc=2pass / mbtree=1 / bitrate=12989 / ratetol=1.0 / qcomp=0.60 / qpmin=0 / qpmax=69 / qpstep=4 / cplxblur=20.0 / qblur=0.5 / ip_ratio=1.40 / aq=1:0.80
Default : Yes
Forced : No

Audio
ID : 2
Format : FLAC
Format/Info : Free Lossless Audio Codec
Codec ID : A_FLAC
Duration : 1 h 32 min
Bit rate mode : Variable
Bit rate : 569 kb/s
Channel(s) : 1 channel
Channel positions : Front: C
Sampling rate : 48.0 kHz
Frame rate : 11.719 FPS (4096 spf)
Bit depth : 24 bits
Stream size : 376 MiB (4%)
Writing library : libFLAC 1.2.1 (UTC 2007-09-17)
Language : English
Default : Yes
Forced : No

Text #1
ID : 3
Format : UTF-8
Codec ID : S_TEXT/UTF8
Codec ID/Info : UTF-8 Plain Text
Duration : 1 h 24 min
Bit rate : 27 b/s
Count of elements : 508
Stream size : 17.1 KiB (0%)
Language : English
Default : No
Forced : No

Text #2
ID : 4
Format : UTF-8
Codec ID : S_TEXT/UTF8
Codec ID/Info : UTF-8 Plain Text
Duration : 1 h 30 min
Bit rate : 31 b/s
Count of elements : 657
Stream size : 20.6 KiB (0%)
Title : SDH
Language : English
Default : No
Forced : No

Menu
00:00:00.000 : en:00:00:00.000
00:01:53.864 : en:00:01:53.864
00:07:04.007 : en:00:07:04.007
00:10:02.602 : en:00:10:02.602
00:20:20.845 : en:00:20:20.845
00:26:44.686 : en:00:26:44.686
00:39:26.614 : en:00:39:26.614
00:46:52.184 : en:00:46:52.184
00:54:29.975 : en:00:54:29.975
01:01:55.712 : en:01:01:55.712
01:05:39.936 : en:01:05:39.936
01:09:25.453 : en:01:09:25.453
01:13:04.880 : en:01:13:04.880
01:18:00.509 : en:01:18:00.509
01:20:34.288 : en:01:20:34.288
01:26:42.155 : en:01:26:42.155


BDRip 720p Screenshots

Morocco (1930)

Morocco (1930)

Morocco (1930)


BDRip 1080p Screenshots

Morocco (1930)

Morocco (1930)

Morocco (1930)


Come Visit My Blog (•‿•)