Tags
Language
Tags

Mozambique (1964)

Posted By: Tavaz
1080p (FullHD) / BDRip IMDb
Mozambique (1964)

Mozambique (1964)
BDRip | MKV | 1920x816 | English | H264 @ 11500 kbps | DTS @ 1509 kbps | 1 h 37 min | 8.90 GiB
Subtitles: English
Genre: Action, Crime, Drama

An American pilot assists the Portuguese colonial police who are battling a gang of criminals involved in drug smuggling from Lisbon to Mozambique to Zanzibar.

Mozambique.1964.1080p.BluRay.x264.DTS-FGT.part1.rar (4.7 GB)
Mozambique.1964.1080p.BluRay.x264.DTS-FGT.part2.rar (4.3 GB)



General
Unique ID : 74657200512365154552069870813005359339 (0x382A742C70706B8D171FDE75C63A28EB)
Complete name : ./b8bc5834cee04f958f5af95cc7a3fab3.mkv
Format : Matroska
Format version : Version 4 / Version 2
File size : 8.90 GiB
Duration : 1 h 37 min
Overall bit rate : 13.0 Mb/s
Movie name : Mozambique.1964.1080p.BluRay.x264.DTS-FGT
Encoded date : UTC 2020-06-18 15:39:15
Writing application : mkvmerge v47.0.0 ('Black Flag') 64-bit
Writing library : libebml v1.3.10 + libmatroska v1.5.2
Cover : Yes
Attachments : small_cover.jpg / small_cover_land.jpg / cover.jpg / cover_land.jpg

Video
ID : 1
Format : AVC
Format/Info : Advanced Video Codec
Format profile : High@L4.1
Format settings : CABAC / 4 Ref Frames
Format settings, CABAC : Yes
Format settings, RefFrames : 4 frames
Codec ID : V_MPEG4/ISO/AVC
Duration : 1 h 37 min
Bit rate : 11.5 Mb/s
Width : 1 920 pixels
Height : 816 pixels
Display aspect ratio : 2.35:1
Frame rate mode : Constant
Frame rate : 23.976 (24000/1001) FPS
Color space : YUV
Chroma subsampling : 4:2:0
Bit depth : 8 bits
Scan type : Progressive
Bits/(Pixel*Frame) : 0.306
Stream size : 7.87 GiB (88%)
Title : Mozambique.1964.1080p.BluRay.x264.DTS-FGT
Writing library : x264 core 148 r2748 97eaef2
Encoding settings : cabac=1 / ref=4 / deblock=1:-2:-2 / analyse=0x3:0x113 / me=umh / subme=9 / psy=1 / psy_rd=1.00:0.15 / mixed_ref=1 / me_range=16 / chroma_me=1 / trellis=2 / 8x8dct=1 / cqm=0 / deadzone=21,11 / fast_pskip=1 / chroma_qp_offset=-3 / threads=24 / lookahead_threads=3 / sliced_threads=0 / nr=0 / decimate=1 / interlaced=0 / bluray_compat=0 / constrained_intra=0 / bframes=3 / b_pyramid=2 / b_adapt=1 / b_bias=0 / direct=3 / weightb=1 / open_gop=0 / weightp=2 / keyint=250 / keyint_min=25 / scenecut=40 / intra_refresh=0 / rc_lookahead=50 / rc=2pass / mbtree=1 / bitrate=11500 / ratetol=1.0 / qcomp=0.60 / qpmin=0 / qpmax=69 / qpstep=4 / cplxblur=20.0 / qblur=0.5 / vbv_maxrate=31250 / vbv_bufsize=31250 / nal_hrd=none / filler=0 / ip_ratio=1.40 / aq=1:1.00
Language : English
Default : Yes
Forced : No

Audio
ID : 2
Format : DTS
Format/Info : Digital Theater Systems
Mode : 16
Format settings, Endianness : Big
Codec ID : A_DTS
Duration : 1 h 37 min
Bit rate mode : Constant
Bit rate : 1 509 kb/s
Channel(s) : 2 channels
Channel positions : Front: L R
Sampling rate : 48.0 kHz
Frame rate : 93.750 FPS (512 SPF)
Bit depth : 16 bits
Compression mode : Lossy
Stream size : 1.03 GiB (12%)
Title : Mozambique.1964.1080p.BluRay.x264.DTS-FGT
Language : English
Default : Yes
Forced : No

Text
ID : 3
Format : UTF-8
Codec ID : S_TEXT/UTF8
Codec ID/Info : UTF-8 Plain Text
Duration : 1 h 35 min
Bit rate : 49 b/s
Count of elements : 1109
Stream size : 34.5 KiB (0%)
Language : English
Default : Yes
Forced : No

Menu
00:00:00.000 : en:Main Titles / Murder In Lisbon
00:02:27.356 : en:Bar Brawl
00:09:15.555 : en:Flight to Mozambique
00:15:24.674 : en:The Late Colonel Valdez
00:17:51.904 : en:The New Nightclub Singer
00:26:27.627 : en:Hide And Sheik
00:32:22.649 : en:The Long Way Home
00:36:39.363 : en:A Close Call
00:42:59.327 : en:Deadly Cargo
00:47:01.318 : en:Ilona's Sad Song
00:54:59.504 : en:Webster To The Rescue
01:03:58.960 : en:Engine Trouble
01:08:24.100 : en:Search Warrant
01:14:26.545 : en:Lies & Alibis
01:17:37.861 : en:The Killer Dwarf
01:23:57.783 : en:Double Cross
01:29:45.755 : en:Under The Bridge
01:37:07.738 : en:Tickets / End Credits





Mozambique (1964)


Mozambique (1964)


Mozambique (1964)


Mozambique (1964)


Mozambique (1964)