My Bakery in Brooklyn - Un pasticcio in cucina (2016)

Posted By: JohnSmith
My Bakery in Brooklyn - Un pasticcio in cucina (2016)

My Bakery in Brooklyn - Un pasticcio in cucina / My Bakery in Brooklyn (2016)
BDRip | MKV / AVC@1840 kb/s | 848x356 | 1h 40mn | 1.74 GB
Italian: AC3, 640 kb/s (6 ch) | Subtitles: Italian (forced, full)
Genre: Comedy | Romance

Vivien e Chloe hanno appena ereditato la pasticceria dalla zia Isabelle, pietra miliare del quartiere da anni. Chloe vorrebbe rinnovare la pasticceria dandole un nuovo look e creando una diversa selezione di prodotti, mentre Vivien vuole essere certa che tutto rimanga esattamente com'è. Lo scontro di idee le porta a una soluzione molto particolare: decidono di dividere il negozio a metà con una striscia nera, in modo che ognuna delle due possa gestire il suo lato come meglio crede. La situazione si surriscalda, man mano che si trovano a dover combattere per ogni cliente che entra dalla porta. Inoltre anche il quartiere sta subendo una trasformazione, diventando un mix improbabile di giovani modaioli e anziani che hanno trascorso lì tutta la loro vita. Vivien e Chloe dovranno imparare a superare le loro differenze e a lavorare insieme come una squadra, per salvare la pasticceria e tutto quello che conta nelle loro vite.




General
Unique ID : 212244939472926225388494318229161287010 (0x9FACE3714C8F65DE95F7ABDAB3589D62)
Complete name : C:\My.Bakery.in.Brooklyn.Un.pasticcio.in.cucina.2016.ITA.BDRip.480p.mkv
Format : Matroska
Format version : Version 4 / Version 2
File size : 1.74 GiB
Duration : 1 h 40 min
Overall bit rate : 2 479 kb/s
Encoded date : UTC 2016-10-21 14:07:02
Writing application : mkvmerge v8.3.0 ('Over the Horizon') 64bit
Writing library : libebml v1.3.1 + libmatroska v1.4.2

Video
ID : 1
Format : AVC
Format/Info : Advanced Video Codec
Format profile : Main@L3
Format settings, CABAC : Yes
Format settings, ReFrames : 1 frame
Codec ID : V_MPEG4/ISO/AVC
Duration : 1 h 40 min
Bit rate : 1 839 kb/s
Width : 848 pixels
Height : 356 pixels
Display aspect ratio : 2.40:1
Frame rate mode : Constant
Frame rate : 24.000 FPS
Color space : YUV
Chroma subsampling : 4:2:0
Bit depth : 8 bits
Scan type : Progressive
Bits/(Pixel*Frame) : 0.254
Stream size : 1.29 GiB (74%)
Writing library : x264 core 129
Encoding settings : cabac=1 / ref=1 / deblock=1:0:0 / analyse=0x1:0x131 / me=dia / subme=2 / psy=1 / psy_rd=1.00:0.00 / mixed_ref=0 / me_range=16 / chroma_me=1 / trellis=0 / 8x8dct=0 / cqm=0 / deadzone=21,11 / fast_pskip=1 / chroma_qp_offset=0 / threads=8 / lookahead_threads=1 / sliced_threads=0 / nr=0 / decimate=1 / interlaced=0 / bluray_compat=0 / constrained_intra=0 / bframes=0 / weightp=2 / keyint=250 / keyint_min=25 / scenecut=40 / intra_refresh=0 / rc_lookahead=40 / rc=abr / mbtree=1 / bitrate=1839 / ratetol=1.0 / qcomp=0.60 / qpmin=10 / qpmax=51 / qpstep=4 / ip_ratio=1.41 / aq=1:1.00
Language : English
Default : Yes
Forced : No

Audio
ID : 2
Format : AC-3
Format/Info : Audio Coding 3
Mode extension : CM (complete main)
Format settings, Endianness : Big
Codec ID : A_AC3
Duration : 1 h 40 min
Bit rate mode : Constant
Bit rate : 640 kb/s
Channel(s) : 6 channels
Channel positions : Front: L C R, Side: L R, LFE
Sampling rate : 48.0 kHz
Frame rate : 31.250 FPS (1536 spf)
Compression mode : Lossy
Stream size : 461 MiB (26%)
Language : Italian
Default : Yes
Forced : No

Text #1
ID : 3
Format : UTF-8
Codec ID : S_TEXT/UTF8
Codec ID/Info : UTF-8 Plain Text
Duration : 28 min 11 s
Bit rate : 4 b/s
Count of elements : 32
Stream size : 947 Bytes (0%)
Title : Forced
Language : Italian
Default : Yes
Forced : Yes

Text #2
ID : 4
Format : UTF-8
Codec ID : S_TEXT/UTF8
Codec ID/Info : UTF-8 Plain Text
Duration : 1 h 36 min
Bit rate : 64 b/s
Count of elements : 1184
Stream size : 45.7 KiB (0%)
Language : Italian
Default : No
Forced : No




Screenshots

My Bakery in Brooklyn - Un pasticcio in cucina (2016)

My Bakery in Brooklyn - Un pasticcio in cucina (2016)

My Bakery in Brooklyn - Un pasticcio in cucina (2016)