Subcategories

My Big Fat Greek Wedding 2 (2016)

Posted By: JohnSmith
My Big Fat Greek Wedding 2 (2016)

My Big Fat Greek Wedding 2 (2016)
HDRip | AVI / XviD@1732 kb/s | 720x304 | 1h 33mn | 1.39 GB | English: AC3, 384 kb/s (6 ch)
WEB-DL 720p | MKV / AVC@3651 kb/s | 1280x536 | 1h 33mn | 2.62 GB | English: AC3, 384 kb/s (6 ch)
WEB-DL 1080p | MKV / AVC@4377 kb/s | 1914x800 | 1h 33mn | 3.19 GB | English: AC3, 384 kb/s (6 ch)
Genre: Comedy | Family | Romance

Still working in her parents' Greek restaurant, Toula Portokalos's daughter Paris is growing up. She is getting ready to graduate high school and Toula and Ian are experiencing marital issues. When Toula's parents find out they were never officially married, another wedding is in the works. Can this big, fat, Greek event help to bring the family together?




General
Complete name : D:\Downloads\My.Big.Fat.Greek.Wedding.2.2016.HDRip.XviD.AC3-EVO\My.Big.Fat.Greek.Wedding.2.2016.HDRip.XviD.AC3-EVO.avi
Format : AVI
Format/Info : Audio Video Interleave
File size : 1.39 GiB
Duration : 1h 33mn
Overall bit rate : 2 125 Kbps
Writing library : VirtualDub build 32593/release

Video
ID : 0
Format : MPEG-4 Visual
Format profile : Advanced Simple@L5
Format settings, BVOP : 2
Format settings, QPel : No
Format settings, GMC : No warppoints
Format settings, Matrix : Default (H.263)
Muxing mode : Packed bitstream
Codec ID : XVID
Codec ID/Hint : XviD
Duration : 1h 33mn
Bit rate : 1 732 Kbps
Width : 720 pixels
Height : 304 pixels
Display aspect ratio : 2.35:1
Frame rate : 23.976 fps
Color space : YUV
Chroma subsampling : 4:2:0
Bit depth : 8 bits
Scan type : Progressive
Compression mode : Lossy
Bits/(Pixel*Frame) : 0.330
Stream size : 1.14 GiB (81%)
Writing library : XviD 66

Audio
ID : 1
Format : AC-3
Format/Info : Audio Coding 3
Mode extension : CM (complete main)
Format settings, Endianness : Big
Codec ID : 2000
Duration : 1h 33mn
Bit rate mode : Constant
Bit rate : 384 Kbps
Channel(s) : 6 channels
Channel positions : Front: L C R, Side: L R, LFE
Sampling rate : 48.0 KHz
Compression mode : Lossy
Stream size : 258 MiB (18%)
Alignment : Aligned on interleaves
Interleave, duration : 42 ms (1.00 video frame)
Interleave, preload duratio : 512 ms



General
Unique ID : 247565618944002957972362826951662360976 (0xBA3F67643031CC93A89E8B74BE95D990)
Complete name : D:\Downloads\My.Big.Fat.Greek.Wedding.2.2016.720p.WEB-DL.X264.AC3-EVO\My.Big.Fat.Greek.Wedding.2.2016.720p.WEB-DL.X264.AC3-EVO.mkv
Format : Matroska
Format version : Version 4 / Version 2
File size : 2.62 GiB
Duration : 1h 33mn
Overall bit rate : 3 998 Kbps
Movie name : EVO
Encoded date : UTC 2016-06-07 10:35:59
Writing application : mkvmerge v6.7.0 ('Back to the Ground') 64bit built on Jan 8 2014 15:10:52
Writing library : libebml v1.3.0 + libmatroska v1.4.1

Video
ID : 1
Format : AVC
Format/Info : Advanced Video Codec
Format profile : High@L4.1
Format settings, CABAC : Yes
Format settings, ReFrames : 4 frames
Codec ID : V_MPEG4/ISO/AVC
Duration : 1h 33mn
Bit rate : 3 651 Kbps
Width : 1 280 pixels
Height : 536 pixels
Display aspect ratio : 2.40:1
Frame rate mode : Constant
Frame rate : 23.976 fps
Color space : YUV
Chroma subsampling : 4:2:0
Bit depth : 8 bits
Scan type : Progressive
Bits/(Pixel*Frame) : 0.222
Stream size : 2.32 GiB (88%)
Writing library : x264 core 142 r2479 dd79a61
Encoding settings : cabac=1 / ref=1 / deblock=1:0:0 / analyse=0x3:0x113 / me=hex / subme=2 / psy=1 / psy_rd=1.00:0.00 / mixed_ref=0 / me_range=16 / chroma_me=1 / trellis=0 / 8x8dct=1 / cqm=0 / deadzone=21,11 / fast_pskip=1 / chroma_qp_offset=0 / threads=12 / lookahead_threads=4 / sliced_threads=0 / nr=0 / decimate=1 / interlaced=0 / bluray_compat=0 / constrained_intra=0 / bframes=3 / b_pyramid=2 / b_adapt=1 / b_bias=0 / direct=1 / weightb=1 / open_gop=0 / weightp=1 / keyint=240 / keyint_min=24 / scenecut=40 / intra_refresh=0 / rc_lookahead=10 / rc=abr / mbtree=1 / bitrate=3651 / ratetol=1.0 / qcomp=0.60 / qpmin=0 / qpmax=69 / qpstep=4 / vbv_maxrate=62500 / vbv_bufsize=78125 / nal_hrd=none / filler=0 / ip_ratio=1.40 / aq=1:1.00
Default : Yes
Forced : No
Color range : Limited
Color primaries : BT.709
Transfer characteristics : BT.709
Matrix coefficients : BT.709

Audio
ID : 2
Format : AC-3
Format/Info : Audio Coding 3
Mode extension : CM (complete main)
Format settings, Endianness : Big
Codec ID : A_AC3
Duration : 1h 33mn
Bit rate mode : Constant
Bit rate : 384 Kbps
Channel(s) : 6 channels
Channel positions : Front: L C R, Side: L R, LFE
Sampling rate : 48.0 KHz
Compression mode : Lossy
Delay relative to video : -5ms
Stream size : 258 MiB (10%)
Title : Surround
Language : English
Default : Yes
Forced : No

Menu
00:00:00.000 : :1
00:05:41.091 : :2
00:10:41.099 : :3



General
Unique ID : 233417133816389494738318606479152485352 (0xAF9A81379FB517B9B8C6C36A290D93E8)
Complete name : D:\Downloads\My.Big.Fat.Greek.Wedding.2.2016.1080p.WEB-DL.H264.AC3-EVO\My.Big.Fat.Greek.Wedding.2.2016.1080p.WEB-DL.H264.AC3-EVO.mkv
Format : Matroska
Format version : Version 4 / Version 2
File size : 3.19 GiB
Duration : 1h 33mn
Overall bit rate : 4 858 Kbps
Movie name : EVO
Encoded date : UTC 2016-06-07 09:27:41
Writing application : mkvmerge v6.7.0 ('Back to the Ground') 64bit built on Jan 8 2014 15:10:52
Writing library : libebml v1.3.0 + libmatroska v1.4.1

Video
ID : 1
Format : AVC
Format/Info : Advanced Video Codec
Format profile : High@L4
Format settings, CABAC : Yes
Format settings, ReFrames : 5 frames
Codec ID : V_MPEG4/ISO/AVC
Duration : 1h 33mn
Bit rate : 4 377 Kbps
Width : 1 914 pixels
Height : 800 pixels
Display aspect ratio : 2.40:1
Original display aspect rat : 2.40:1
Frame rate mode : Constant
Frame rate : 23.976 fps
Color space : YUV
Chroma subsampling : 4:2:0
Bit depth : 8 bits
Scan type : Progressive
Bits/(Pixel*Frame) : 0.119
Stream size : 2.87 GiB (90%)
Title : EVO
Language : English
Default : Yes
Forced : No
Color range : Limited
Color primaries : BT.709
Transfer characteristics : BT.709
Matrix coefficients : BT.709

Audio
ID : 2
Format : AC-3
Format/Info : Audio Coding 3
Mode extension : CM (complete main)
Format settings, Endianness : Big
Codec ID : A_AC3
Duration : 1h 33mn
Bit rate mode : Constant
Bit rate : 384 Kbps
Channel(s) : 6 channels
Channel positions : Front: L C R, Side: L R, LFE
Sampling rate : 48.0 KHz
Compression mode : Lossy
Stream size : 258 MiB (8%)
Language : English
Default : Yes
Forced : No

Menu
00:00:00.000 : en:1
00:05:41.000 : en:2
00:10:41.000 : en:3


Screenshots HDRip

My Big Fat Greek Wedding 2 (2016)

My Big Fat Greek Wedding 2 (2016)

My Big Fat Greek Wedding 2 (2016)


Screenshots WEB-DL 720p

My Big Fat Greek Wedding 2 (2016)

My Big Fat Greek Wedding 2 (2016)

My Big Fat Greek Wedding 2 (2016)


Screenshots WEB-DL 1080p

My Big Fat Greek Wedding 2 (2016)

My Big Fat Greek Wedding 2 (2016)

My Big Fat Greek Wedding 2 (2016)