Subcategories

My Big Fat Greek Wedding 2 (2016)

Posted By: Without
My Big Fat Greek Wedding 2 (2016)

My Big Fat Greek Wedding 2 (2016)
WEBRip | AVI | 720x304 | XviD@1923 Kbps | English AC3@192 Kbps | Subs: Chinese HC | 2 channels | 1h 33mn | 1.38 GB
WEBRip 720p | MKV | 1280x528 | AVC@2874 Kbps | English AC3@192 Kbps | Subs: Chinese HC | 2 channels | 1h 33mn | 2.00 GB
WEBRip 1080p | MP4 | 1920x800 | AVC@2490 Kbps | English AAC@96 Kbps | Subs: Chinese HC | 2 channels | 1h 33mn | 1.69 GB
Genre: Comedy, Romance

A Portokalos family secret brings the beloved characters back together for an even bigger and Greeker wedding.



General
Complete name : My.Big.Fat.Greek.Wedding.2.2016.HC.HDRip.XviD.AC3-EVO\My.Big.Fat.Greek.Wedding.2.2016.HC.HDRip.XviD.AC3-EVO.avi
Format : AVI
Format/Info : Audio Video Interleave
Format profile : OpenDML
Format settings : rec
File size : 1.39 GiB
Duration : 1h 33mn
Overall bit rate : 2 121 Kbps
Writing application : AVI-Mux GUI 1.17.8.3, Feb 16 201019:42:50

Video
ID : 0
Format : MPEG-4 Visual
Format profile : Advanced Simple@L5
Format settings, BVOP : 2
Format settings, QPel : No
Format settings, GMC : No warppoints
Format settings, Matrix : Default (H.263)
Muxing mode : Packed bitstream
Codec ID : XVID
Codec ID/Hint : XviD
Duration : 1h 33mn
Bit rate : 1 923 Kbps
Width : 720 pixels
Height : 304 pixels
Display aspect ratio : 2.35:1
Frame rate : 23.976 (23976/1000) fps
Color space : YUV
Chroma subsampling : 4:2:0
Bit depth : 8 bits
Scan type : Progressive
Compression mode : Lossy
Bits/(Pixel*Frame) : 0.366
Stream size : 1.26 GiB (91%)
Writing library : XviD 66

Audio
ID : 1
Format : AC-3
Format/Info : Audio Coding 3
Mode extension : CM (complete main)
Format settings, Endianness : Big
Codec ID : 2000
Duration : 1h 33mn
Bit rate mode : Constant
Bit rate : 192 Kbps
Channel(s) : 2 channels
Channel positions : Front: L R
Sampling rate : 48.0 KHz
Frame rate : 31.250 fps (1536 spf)
Compression mode : Lossy
Stream size : 129 MiB (9%)
Alignment : Aligned on interleaves
Interleave, duration : 64 ms (1.53 video frames)
Interleave, preload duration : 192 ms
Title : ac3

General
Unique ID : 252197997656078944546313179605717395033 (0xBDBB914B9D4A6B4B85385837ECF6A659)
Complete name : My.Big.Fat.Greek.Wedding.2.2016.HC.720p.WEBRip.x264.AC3-iFT\My.Big.Fat.Greek.Wedding.2.2016.HC.720p.WEBRip.x264.AC3-iFT.mkv
Format : Matroska
Format version : Version 4 / Version 2
File size : 2.01 GiB
Duration : 1h 33mn
Overall bit rate : 3 068 Kbps
Encoded date : UTC 2016-05-06 05:11:43
Writing application : mkvmerge v8.9.0 ('Father Daughter') 64bit
Writing library : libebml v1.3.3 + libmatroska v1.4.4

Video
ID : 1
Format : AVC
Format/Info : Advanced Video Codec
Format profile : High@L4.1
Format settings, CABAC : Yes
Format settings, ReFrames : 4 frames
Codec ID : V_MPEG4/ISO/AVC
Duration : 1h 33mn
Bit rate : 2 874 Kbps
Width : 1 280 pixels
Height : 528 pixels
Display aspect ratio : 2.40:1
Frame rate mode : Constant
Frame rate : 23.976 (24000/1001) fps
Color space : YUV
Chroma subsampling : 4:2:0
Bit depth : 8 bits
Scan type : Progressive
Bits/(Pixel*Frame) : 0.177
Stream size : 1.88 GiB (94%)
Writing library : x264 core 142 r2431+42 c69a006 tMod [8-bit@all X86_64]
Encoding settings : cabac=1 / ref=3 / deblock=1:-3:-3 / analyse=0x3:0x133 / me=umh / subme=10 / psy=1 / fade_compensate=0.00 / psy_rd=1.00:1.00 / mixed_ref=1 / me_range=36 / chroma_me=1 / trellis=2 / 8x8dct=1 / cqm=0 / deadzone=21,11 / fast_pskip=0 / chroma_qp_offset=-4 / threads=16 / lookahead_threads=1 / sliced_threads=0 / nr=0 / decimate=0 / interlaced=0 / bluray_compat=0 / constrained_intra=0 / fgo=0 / bframes=3 / b_pyramid=2 / b_adapt=2 / b_bias=0 / direct=3 / weightb=1 / open_gop=0 / weightp=2 / keyint=240 / keyint_min=23 / scenecut=40 / intra_refresh=0 / rc_lookahead=150 / rc=crf / mbtree=0 / crf=16.5000 / qcomp=0.60 / qpmin=0:0:0 / qpmax=69:69:69 / qpstep=4 / vbv_maxrate=40000 / vbv_bufsize=30000 / crf_max=0.0 / nal_hrd=none / filler=0 / ip_ratio=1.20 / pb_ratio=1.30 / aq=2:0.68 / aq-sensitivity=10.00 / aq-factor=1.00:1.00:1.00 / aq2=0 / aq3=0
Default : Yes
Forced : No
Color range : Limited
Color primaries : BT.709
Transfer characteristics : BT.709
Matrix coefficients : BT.709

Audio
ID : 2
Format : AC-3
Format/Info : Audio Coding 3
Mode extension : CM (complete main)
Format settings, Endianness : Big
Codec ID : A_AC3
Duration : 1h 33mn
Bit rate mode : Constant
Bit rate : 192 Kbps
Channel(s) : 2 channels
Channel positions : Front: L R
Sampling rate : 48.0 KHz
Frame rate : 31.250 fps (1536 spf)
Compression mode : Lossy
Stream size : 129 MiB (6%)
Default : Yes
Forced : No

General
Complete name : My.Big.Fat.Greek.Wedding.2.2016.HC.WEBRIP.x264.AAC-Showscen.mp4
Format : MPEG-4
Format profile : Base Media
Codec ID : isom (isom/iso2/avc1/mp41)
File size : 1.70 GiB
Duration : 1h 33mn
Overall bit rate mode : Variable
Overall bit rate : 2 590 Kbps
Writing application : Lavf56.25.101

Video
ID : 1
Format : AVC
Format/Info : Advanced Video Codec
Format profile : Main@L4
Format settings, CABAC : Yes
Format settings, ReFrames : 4 frames
Codec ID : avc1
Codec ID/Info : Advanced Video Coding
Duration : 1h 33mn
Bit rate : 2 490 Kbps
Width : 1 920 pixels
Height : 800 pixels
Display aspect ratio : 2.40:1
Frame rate mode : Variable
Frame rate : 23.976 (23976/1000) fps
Minimum frame rate : 3.425 fps
Maximum frame rate : 23.975 fps
Color space : YUV
Chroma subsampling : 4:2:0
Bit depth : 8 bits
Scan type : Progressive
Bits/(Pixel*Frame) : 0.068
Stream size : 1.63 GiB (96%)

Audio
ID : 2
Format : AAC
Format/Info : Advanced Audio Codec
Format profile : HE-AAC / LC
Codec ID : 40
Duration : 1h 33mn
Bit rate mode : Variable
Bit rate : 96.0 Kbps
Maximum bit rate : 128 Kbps
Channel(s) : 2 channels
Channel positions : Front: L R
Sampling rate : 48.0 KHz / 24.0 KHz
Frame rate : 23.438 fps (1024 spf)
Compression mode : Lossy
Stream size : 64.4 MiB (4%)
Language : unk
Default : Yes
Alternate group : 1


WEBRip Screenshots

My Big Fat Greek Wedding 2 (2016)

My Big Fat Greek Wedding 2 (2016)

My Big Fat Greek Wedding 2 (2016)


WEBRip 720p Screenshots

My Big Fat Greek Wedding 2 (2016)

My Big Fat Greek Wedding 2 (2016)

My Big Fat Greek Wedding 2 (2016)


WEBRip 1080p Screenshots

My Big Fat Greek Wedding 2 (2016)

My Big Fat Greek Wedding 2 (2016)

My Big Fat Greek Wedding 2 (2016)


Come Visit My Blog (•‿•)