NG Man Made - Chevy Volt (2010)

Posted By: Polik88
NG Man Made - Chevy Volt (2010)

NG Man Made - Chevy Volt (2010)
HDTV | English | MKV (H264) 29.970 fps 3415 Kbps | 1280x720 | AC3 384 Kbps 48.0 khz | 45mn 47s | 1.24 GB
Genre: Documentary

The soon-to-be-released Chevy Volt electric car just might redefine the automotive world: It can go from 0 to 60 in less than nine seconds, hit a top speed of 100 miles per hour and is good for 40 miles of zero-emission, pure electric driving. National Geographic got a rare, behind-the-scenes look inside the preproduction factory for this revolutionary vehicle. At GM's 200,000-square-foot facility outside of Detroit, Michigan�a place closely guarded for fear of industrial espionage�see what it takes to design, build, and assemble this car of the future. At this high-tech "Ultimate Factory", 18,000 parts and 1,000 hours of aerodynamic testing come together to create the Volt. And, at the heart of this revolutionary design is a 6-foot long, 400-pound battery that GM hopes will usher in a new era of automobiles.
General
Complete name : NG.Man.Made.Chevy.Volt.mkv
Format : Matroska
Format version : Version 2
File size : 1.24 GiB
Duration : 45mn 47s
Overall bit rate : 3 876 Kbps
Encoded date : UTC 2013-01-30 02:20:12
Writing application : mkvmerge v5.8.0 ('No Sleep / Pillow') built on Sep 2 2012 15:37:04
Writing library : libebml v1.2.3 + libmatroska v1.3.0

Video
ID : 1
Format : AVC
Format/Info : Advanced Video Codec
Format profile : High@L4.1
Format settings, CABAC : Yes
Format settings, ReFrames : 8 frames
Muxing mode : Header stripping
Codec ID : V_MPEG4/ISO/AVC
Duration : 45mn 47s
Bit rate : 3 415 Kbps
Width : 1 280 pixels
Height : 720 pixels
Display aspect ratio : 16:9
Frame rate : 29.970 fps
Color space : YUV
Chroma subsampling : 4:2:0
Bit depth : 8 bits
Scan type : Progressive
Bits/(Pixel*Frame) : 0.124
Stream size : 1.09 GiB (88%)
Writing library : x264 core 129 r2230 1cffe9f
Encoding settings : cabac=1 / ref=8 / deblock=1:-1:-1 / analyse=0x3:0x113 / me=esa / subme=8 / psy=1 / psy_rd=1.00:0.00 / mixed_ref=0 / me_range=30 / chroma_me=1 / trellis=2 / 8x8dct=1 / cqm=0 / deadzone=21,11 / fast_pskip=0 / chroma_qp_offset=-2 / threads=6 / lookahead_threads=1 / sliced_threads=0 / nr=0 / decimate=1 / interlaced=0 / bluray_compat=0 / constrained_intra=0 / bframes=5 / b_pyramid=0 / b_adapt=2 / b_bias=0 / direct=1 / weightb=1 / open_gop=0 / weightp=2 / keyint=300 / keyint_min=29 / scenecut=40 / intra_refresh=0 / rc_lookahead=40 / rc=crf / mbtree=1 / crf=20.0 / qcomp=0.60 / qpmin=10 / qpmax=51 / qpstep=4 / ip_ratio=1.40 / aq=1:1.05
Language : English
Default : Yes
Forced : No

Audio
ID : 2
Format : AC-3
Format/Info : Audio Coding 3
Mode extension : CM (complete main)
Format settings, Endianness : Big
Muxing mode : Header stripping
Codec ID : A_AC3
Duration : 45mn 47s
Bit rate mode : Constant
Bit rate : 384 Kbps
Channel(s) : 6 channels
Channel positions : Front: L C R, Side: L R, LFE
Sampling rate : 48.0 KHz
Bit depth : 16 bits
Compression mode : Lossy
Stream size : 126 MiB (10%)
Default : Yes
Forced : No

Screenshots

NG Man Made - Chevy Volt (2010)

NG Man Made - Chevy Volt (2010)

NG Man Made - Chevy Volt (2010)

no mirrors please, Follow The Rules
Visit Polik88 Blog Here
no password