NHK - The Great Summits (2010)

Posted By: Polik88
NHK - The Great Summits (2010)

NHK - The Great Summits (2010)
HDTV | English | MKV (H264) 29.970 fps 2915 Kbps | 1280x720 | AC3 384 Kbps 48.0 khz | 10x43mn | 10x1.41 GB
Genre: Documentary

The Great Summits introduces ten of the world' s most famed mountains such as Mont Blanc and the Matterhorn in the European Alps and Mt. McKinley in Alaska. Guided by expert climbers, viewers can experience what it feels like to climb these mountains. Feel the same fear and excitement through the lens of a Steadicam.
General
Complete name : NHK.The.Great.Summits.01of10.Mont.Blanc.White.Queen.of.the.Alps.mkv
Format : Matroska
Format version : Version 2
File size : 1.01 GiB
Duration : 43mn 0s
Overall bit rate : 3 366 Kbps
Encoded date : UTC 2012-07-31 00:44:44
Writing application : mkvmerge v3.3.0 ('Language') built on Mar 24 2010 14:59:24
Writing library : libebml v0.8.0 + libmatroska v0.9.0

Video
ID : 1
Format : AVC
Format/Info : Advanced Video Codec
Format profile : High@L4.1
Format settings, CABAC : Yes
Format settings, ReFrames : 8 frames
Codec ID : V_MPEG4/ISO/AVC
Duration : 43mn 0s
Bit rate : 2 915 Kbps
Width : 1 280 pixels
Height : 720 pixels
Display aspect ratio : 16:9
Frame rate : 29.970 fps
Color space : YUV
Chroma subsampling : 4:2:0
Bit depth : 8 bits
Scan type : Progressive
Bits/(Pixel*Frame) : 0.106
Stream size : 897 MiB (87%)
Writing library : x264 core 116 r2074 2641b9e
Encoding settings : cabac=1 / ref=8 / deblock=1:-1:-1 / analyse=0x3:0x113 / me=umh / subme=7 / psy=1 / psy_rd=1.00:0.00 / mixed_ref=0 / me_range=30 / chroma_me=1 / trellis=2 / 8x8dct=1 / cqm=0 / deadzone=21,11 / fast_pskip=0 / chroma_qp_offset=-2 / threads=6 / sliced_threads=0 / nr=0 / decimate=1 / interlaced=0 / bluray_compat=0 / constrained_intra=0 / bframes=5 / b_pyramid=0 / b_adapt=2 / b_bias=0 / direct=1 / weightb=1 / open_gop=0 / weightp=2 / keyint=300 / keyint_min=29 / scenecut=40 / intra_refresh=0 / rc_lookahead=40 / rc=crf / mbtree=1 / crf=20.0 / qcomp=0.60 / qpmin=10 / qpmax=51 / qpstep=4 / ip_ratio=1.40 / aq=1:1.05
Language : English
Default : No
Forced : No

Audio
ID : 2
Format : AC-3
Format/Info : Audio Coding 3
Mode extension : CM (complete main)
Format settings, Endianness : Big
Codec ID : A_AC3
Duration : 43mn 0s
Bit rate mode : Constant
Bit rate : 384 Kbps
Channel(s) : 6 channels
Channel positions : Front: L C R, Side: L R, LFE
Sampling rate : 48.0 KHz
Bit depth : 16 bits
Compression mode : Lossy
Stream size : 118 MiB (11%)
Default : Yes
Forced : No

Screenshots

NHK - The Great Summits (2010)

NHK - The Great Summits (2010)

NHK - The Great Summits (2010)

no mirrors please, Follow The Rules
Visit Polik88 Blog Here
no password
Download:

NHK.The.Great.Summits.10of10.Wilhelm.The.Summit.of.Spirits.part3.rar
NHK.The.Great.Summits.10of10.Wilhelm.The.Summit.of.Spirits.part4.rar
NHK.The.Great.Summits.10of10.Wilhelm.The.Summit.of.Spirits.part2.rar
NHK.The.Great.Summits.10of10.Wilhelm.The.Summit.of.Spirits.part1.rar
NHK.The.Great.Summits.09of10.Aspiring.Glistening.Peak.Forged.by.Wind.and.Water.part4.rar
NHK.The.Great.Summits.09of10.Aspiring.Glistening.Peak.Forged.by.Wind.and.Water.part3.rar
NHK.The.Great.Summits.09of10.Aspiring.Glistening.Peak.Forged.by.Wind.and.Water.part2.rar
NHK.The.Great.Summits.09of10.Aspiring.Glistening.Peak.Forged.by.Wind.and.Water.part1.rar
NHK.The.Great.Summits.08of10.Kilimanjaro.White.Mountain.of.the.Equator.part3.rar
NHK.The.Great.Summits.08of10.Kilimanjaro.White.Mountain.of.the.Equator.part4.rar
NHK.The.Great.Summits.08of10.Kilimanjaro.White.Mountain.of.the.Equator.part1.rar
NHK.The.Great.Summits.08of10.Kilimanjaro.White.Mountain.of.the.Equator.part2.rar
NHK.The.Great.Summits.07of10.Kinabalu.The.Majestic.Tropical.Sanctuary.part3.rar
NHK.The.Great.Summits.07of10.Kinabalu.The.Majestic.Tropical.Sanctuary.part2.rar
NHK.The.Great.Summits.07of10.Kinabalu.The.Majestic.Tropical.Sanctuary.part1.rar
NHK.The.Great.Summits.06of10.Auyantepui.Lost.World.in.the.Sky.part4.rar
NHK.The.Great.Summits.06of10.Auyantepui.Lost.World.in.the.Sky.part3.rar
NHK.The.Great.Summits.06of10.Auyantepui.Lost.World.in.the.Sky.part2.rar
NHK.The.Great.Summits.06of10.Auyantepui.Lost.World.in.the.Sky.part1.rar
NHK.The.Great.Summits.05of10.Matterhorn.Majestic.Peak.that.Pierces.the.Sky.part3.rar
NHK.The.Great.Summits.05of10.Matterhorn.Majestic.Peak.that.Pierces.the.Sky.part4.rar
NHK.The.Great.Summits.05of10.Matterhorn.Majestic.Peak.that.Pierces.the.Sky.part2.rar
NHK.The.Great.Summits.05of10.Matterhorn.Majestic.Peak.that.Pierces.the.Sky.part1.rar
NHK.The.Great.Summits.04of10.Klyuchevskaya.Mountainof.Fire.and.Ice.part3.rar
NHK.The.Great.Summits.04of10.Klyuchevskaya.Mountainof.Fire.and.Ice.part2.rar
NHK.The.Great.Summits.04of10.Klyuchevskaya.Mountainof.Fire.and.Ice.part1.rar
NHK.The.Great.Summits.03of10.McKinley.Grand.Mountain.of.the.Far.North.part2.rar
NHK.The.Great.Summits.02of10.Huascaran.Highest.Peak.in.the.Tropics.part3.rar
NHK.The.Great.Summits.03of10.McKinley.Grand.Mountain.of.the.Far.North.part1.rar
NHK.The.Great.Summits.02of10.Huascaran.Highest.Peak.in.the.Tropics.part1.rar
NHK.The.Great.Summits.02of10.Huascaran.Highest.Peak.in.the.Tropics.part2.rar
NHK.The.Great.Summits.01of10.Mont.Blanc.White.Queen.of.the.Alps.part3.rar
NHK.The.Great.Summits.01of10.Mont.Blanc.White.Queen.of.the.Alps.part1.rar
NHK.The.Great.Summits.01of10.Mont.Blanc.White.Queen.of.the.Alps.part2.rar