NHK - Tokyo Eye 2020: The Complete Guide to Tokyo Station (2018)

Posted By: notbanned
720p (HD) / HDTV
NHK - Tokyo Eye 2020: The Complete Guide to Tokyo Station (2018)

NHK - Tokyo Eye 2020: The Complete Guide to Tokyo Station (2018)
HDTV | 1280x720 | .MP4/AVC @ 3200 Kbps | 27 min 59 s | 664 MiB
Audio: English AAC 160 kbps, 2 channels | Subs: None
Genre: Documentary

Tokyo Station Marunouchi Station Building Originally built in 1914, Tokyo Station is sometimes referred to as the "gateway to Tokyo." For roughly 60 years, the station building had a makeshift roof and only two floors, but its 2012 restoration brought back the third floor and octagonal dome roof. A new plaza in front of the station was completed in 2017. Station building includes a hotel and gallery.

General
Complete name : NHK.Tokyo.Eye.2020.The.Complete.Guide.to.Tokyo.Station.720p.mp4
Format : MPEG-4
Format profile : Base Media / Version 2
Codec ID : mp42 (mp42/isom/avc1)
File size : 664 MiB
Duration : 27 min 59 s
Overall bit rate mode : Variable
Overall bit rate : 3 315 kb/s

Video
ID : 1
Format : AVC
Format/Info : Advanced Video Codec
Format profile : High@L4.1
Format settings, CABAC : Yes
Format settings, ReFrames : 4 frames
Codec ID : avc1
Codec ID/Info : Advanced Video Coding
Duration : 27 min 59 s
Bit rate : 3 200 kb/s
Width : 1 280 pixels
Height : 720 pixels
Display aspect ratio : 16:9
Frame rate mode : Constant
Frame rate : 30.000 FPS
Color space : YUV
Chroma subsampling : 4:2:0
Bit depth : 8 bits
Scan type : Progressive
Bits/(Pixel*Frame) : 0.116
Stream size : 631 MiB (95%)
Encoding settings : cabac=1 / ref=1 / deblock=1:0:0 / analyse=0x3:0x113 / me=hex / subme=2 / psy=1 / psy_rd=1.00:0.00 / mixed_ref=0 / me_range=16 / chroma_me=1 / trellis=0 / 8x8dct=1 / cqm=0 / deadzone=21,11 / fast_pskip=1 / chroma_qp_offset=0 / threads=6 / lookahead_threads=2 / sliced_threads=0 / nr=0 / decimate=1 / interlaced=0 / bluray_compat=0 / constrained_intra=0 / bframes=3 / b_pyramid=2 / b_adapt=1 / b_bias=0 / direct=1 / weightb=1 / open_gop=0 / weightp=1 / keyint=300 / keyint_min=30 / scenecut=40 / intra_refresh=0 / rc_lookahead=10 / rc=abr / mbtree=1 / bitrate=3200 / ratetol=1.0 / qcomp=0.60 / qpmin=0 / qpmax=69 / qpstep=4 / vbv_maxrate=62500 / vbv_bufsize=78125 / nal_hrd=none / ip_ratio=1.40 / aq=1:1.00
Encoded date : UTC 2018-04-13 16:26:52
Tagged date : UTC 2018-04-13 16:56:39
Color range : Limited
Color primaries : BT.709
Transfer characteristics : BT.709
Matrix coefficients : BT.709

Audio
ID : 2
Format : AAC
Format/Info : Advanced Audio Codec
Format profile : LC
Codec ID : 40
Duration : 27 min 59 s
Source duration : 27 min 59 s
Bit rate mode : Variable
Bit rate : 160 kb/s
Maximum bit rate : 298 kb/s
Channel(s) : 2 channels
Channel positions : Front: L R
Sampling rate : 44.1 kHz
Frame rate : 43.066 FPS (1024 spf)
Compression mode : Lossy
Stream size : 32.0 MiB (5%)
Source stream size : 32.0 MiB (5%)
Title : Stereo
Encoded date : UTC 2018-04-13 16:26:52
Tagged date : UTC 2018-04-13 16:56:39


Screenshots:

NHK - Tokyo Eye 2020: The Complete Guide to Tokyo Station (2018)

NHK - Tokyo Eye 2020: The Complete Guide to Tokyo Station (2018)

NHK - Tokyo Eye 2020: The Complete Guide to Tokyo Station (2018)

NHK - Tokyo Eye 2020: The Complete Guide to Tokyo Station (2018)