NHK - Train Cruise: The Treasures of Country Life Outside Osaka (2018)

Posted By: notbanned
720p (HD) / HDTV
NHK - Train Cruise: The Treasures of Country Life Outside Osaka (2018)

NHK - Train Cruise: The Treasures of Country Life Outside Osaka (2018)
HDTV | 1280x720 | .MKV/AVC @ 3248 Kbps | 43 min 59 s | 1.02 GiB
Audio: English AAC 64 kbps, 2 channels | Subs: None
Genre: Documentary

We travel from Osaka Station, the gateway to western Japan, through neighboring Hyogo Prefecture. We explore a rural line that was revitalized by local residents, then travel to the Seto Inland Sea to relish fresh oysters. Next, we ride the futuristic Super Hakuto. At a 400-year-old post town that has changed little over time, we hear tales about master swordsman Miyamoto Musashi. Further on, we travel through mountains on the Hamakaze to a bag-producing town where we meet Japan's sole wicker-trunk weaver. At our final destination Kinosaki, we relax in 1,400-year-old hot springs and reflect on the treasures Hyogo has to offer.

General
Unique ID : 169849442307364609567454113440172637386 (0x7FC7D00CF53BFDF424EB407A8E547CCA)
Complete name : NHK.Train.Cruise.The.Treasures.of.Country.Life.Outside.Osaka.720p.mkv
Format : Matroska
Format version : Version 4 / Version 2
File size : 1.02 GiB
Duration : 43 min 59 s
Overall bit rate : 3 314 kb/s

Video
ID : 1
Format : AVC
Format/Info : Advanced Video Codec
Format profile : High@L3.1
Format settings, CABAC : Yes
Format settings, ReFrames : 4 frames
Codec ID : V_MPEG4/ISO/AVC
Duration : 43 min 59 s
Bit rate : 3 248 kb/s
Width : 1 280 pixels
Height : 720 pixels
Display aspect ratio : 16:9
Frame rate mode : Constant
Frame rate : 25.000 FPS
Color space : YUV
Chroma subsampling : 4:2:0
Bit depth : 8 bits
Scan type : Progressive
Bits/(Pixel*Frame) : 0.141
Stream size : 1 022 MiB (98%)
Encoding settings : cabac=1 / ref=3 / deblock=1:0:0 / analyse=0x3:0x113 / me=umh / subme=9 / psy=1 / psy_rd=1.00:0.00 / mixed_ref=1 / me_range=24 / chroma_me=1 / trellis=1 / 8x8dct=1 / cqm=0 / deadzone=21,11 / fast_pskip=0 / chroma_qp_offset=-2 / threads=3 / lookahead_threads=1 / sliced_threads=0 / nr=0 / decimate=1 / interlaced=0 / bluray_compat=0 / constrained_intra=0 / bframes=6 / b_pyramid=2 / b_adapt=2 / b_bias=0 / direct=1 / weightb=1 / open_gop=0 / weightp=2 / keyint=250 / keyint_min=25 / scenecut=40 / intra_refresh=0 / rc_lookahead=40 / rc=crf / mbtree=1 / crf=21.0 / qcomp=0.60 / qpmin=0 / qpmax=69 / qpstep=4 / ip_ratio=1.40 / aq=1:1.00
Language : English
Default : Yes
Forced : No
Color range : Limited
Color primaries : BT.709
Transfer characteristics : BT.709
Matrix coefficients : BT.709

Audio
ID : 2
Format : AAC
Format/Info : Advanced Audio Codec
Format profile : HE-AAC / LC
Codec ID : A_AAC
Duration : 43 min 59 s
Bit rate : 64.0 kb/s
Channel(s) : 2 channels
Channel positions : Front: L R
Sampling rate : 48.0 kHz / 24.0 kHz
Frame rate : 23.438 FPS (1024 spf)
Compression mode : Lossy
Delay relative to video : 43 ms
Stream size : 20.1 MiB (2%)
Language : English
Default : Yes
Forced : No


Screenshots:

NHK - Train Cruise: The Treasures of Country Life Outside Osaka (2018)

NHK - Train Cruise: The Treasures of Country Life Outside Osaka (2018)

NHK - Train Cruise: The Treasures of Country Life Outside Osaka (2018)

NHK - Train Cruise: The Treasures of Country Life Outside Osaka (2018)