ZED - Napoleon: The Russian Campaign Series 1 (2015)

Posted By: notbanned
1080p (FullHD) / HDTV
ZED - Napoleon: The Russian Campaign Series 1 (2015)

ZED - Napoleon: The Russian Campaign Series 1 (2015)
HDTV | 1920x1080 | .MP4/AVC @ 4238 Kbps | 2x~53min | 3.29 GiB
Audio: English AAC 160 kbps, 2 channels | Subs: English
Genre: Documentary

This docudrama revisits one of the most astounding military campaigns and defeats in history, Napoleon's attempted invasion of Russia.
Part 1: The Moskova
Since his victory over Tsar Alexander in 1807 and the Treaty of Tilsit, France and Russia are officially allies. But Alexander doesn’t support Napoleon’s expansionist strategy. To Napoleon, Russia’s behavior makes it an enemy of France. Ignoring calls for caution, Napoleon invades Russia in 1811.

Part 2: The Berezina
Part 2 details the hardships and deprivations suffered by Napoleon's Grande Armee as they await the surrender of the Tsar, which never comes. And with problems in France and his popularity waning, Napoleon begins the long, death-filled retreat from Russia with his exhausted, starving troops.

General
Complete name : Napoleon.The.Russian.Campaign.Series.1.1of2.The.Moskova.1080p.mp4
Format : MPEG-4
Format profile : Base Media
Codec ID : isom (isom)
File size : 1.66 GiB
Duration : 53 min 50 s
Overall bit rate mode : Variable
Overall bit rate : 4 400 kb/s

Video
ID : 1
Format : AVC
Format/Info : Advanced Video Codec
Format profile : High@L4.1
Format settings, CABAC : No
Format settings, ReFrames : 1 frame
Format settings, GOP : M=1, N=12
Codec ID : avc1
Codec ID/Info : Advanced Video Coding
Duration : 53 min 50 s
Bit rate : 4 238 kb/s
Maximum bit rate : 17.1 Mb/s
Width : 1 920 pixels
Height : 1 080 pixels
Display aspect ratio : 16:9
Frame rate mode : Constant
Frame rate : 23.976 (24000/1001) FPS
Color space : YUV
Chroma subsampling : 4:2:0
Bit depth : 8 bits
Scan type : Progressive
Bits/(Pixel*Frame) : 0.085
Stream size : 1.59 GiB (96%)
Encoded date : UTC 2018-05-12 20:50:29
Tagged date : UTC 2018-05-12 23:01:18

Audio
ID : 2
Format : AAC
Format/Info : Advanced Audio Codec
Format profile : LC
Codec ID : 40
Duration : 53 min 50 s
Bit rate mode : Variable
Bit rate : 160 kb/s
Maximum bit rate : 237 kb/s
Channel(s) : 2 channels
Channel positions : Front: L R
Sampling rate : 48.0 kHz
Frame rate : 46.875 FPS (1024 spf)
Compression mode : Lossy
Stream size : 61.6 MiB (4%)
Encoded date : UTC 2018-05-12 23:01:11
Tagged date : UTC 2018-05-12 23:01:18

Text
ID : 3
Format : Timed Text
Codec ID : tx3g
Duration : 53 min 3 s
Bit rate mode : Variable
Bit rate : 93 b/s
Stream size : 36.2 KiB (0%)
Forced : No
Encoded date : UTC 2018-05-12 23:01:18
Tagged date : UTC 2018-05-12 23:01:18


Screenshots:

ZED - Napoleon: The Russian Campaign Series 1 (2015)

ZED - Napoleon: The Russian Campaign Series 1 (2015)

ZED - Napoleon: The Russian Campaign Series 1 (2015)

ZED - Napoleon: The Russian Campaign Series 1 (2015)