Natale a Londra: Dio Salvi la Regina (2016)

Posted By: JohnSmith
Natale a Londra: Dio Salvi la Regina (2016)

Natale a Londra: Dio Salvi la Regina (2016)
BDRip 1080p | MKV / AVC@10.4 Mb/s | 1920x804 | 1h 39mn | 8.27 GB
Italian: DTS, 1509 kb/s (6 ch) | Subtitles: Italian
Genre: Comedy

Londra. Due fratelli pasticcioni sono alle prese con una bella chef stellata e il suo toscanissimo sous chef, un piatto sopraffino, un mare di risate e nientedimeno che la Regina d’Inghilterra. Gli ingredienti ci sono tutti per mettere a segno un colpo sensazionale: rapire i preziosissimi cani della Regina e travolgere Buckingham Palace.




General
Unique ID : 223245601779522647991294194483501301208 (0xA7F389F81A3AD4409940F13018757DD8)
Complete name : A:\Natale.A.Londra.Dio.Salvi.La.Regina.2016.BDRip.1080p-DDN.mkv
Format : Matroska
Format version : Version 4 / Version 2
File size : 8.27 GiB
Duration : 1 h 39 min
Overall bit rate : 11.9 Mb/s
Encoded date : UTC 2017-04-02 14:20:05
Writing application : mkvmerge v8.3.0 ('Over the Horizon') 64bit
Writing library : libebml v1.3.1 + libmatroska v1.4.2

Video
ID : 1
Format : AVC
Format/Info : Advanced Video Codec
Format profile : High@L4.1
Format settings, CABAC : Yes
Format settings, ReFrames : 5 frames
Codec ID : V_MPEG4/ISO/AVC
Duration : 1 h 39 min
Bit rate : 10.4 Mb/s
Width : 1 920 pixels
Height : 804 pixels
Display aspect ratio : 2.40:1
Frame rate mode : Constant
Frame rate : 23.976 (24000/1001) FPS
Color space : YUV
Chroma subsampling : 4:2:0
Bit depth : 8 bits
Scan type : Progressive
Bits/(Pixel*Frame) : 0.281
Stream size : 7.22 GiB (87%)
Writing library : x264 core 148 r2705+54 9f484c1 t_mod_Custom [8-bit@all X86_64]
Encoding settings : cabac=1 / ref=5 / deblock=1:-2:-2 / analyse=0x3:0x133 / me=hex / subme=7 / psy=1 / fade_compensate=0.00 / psy_rd=1.05:0.00 / mixed_ref=1 / me_range=16 / chroma_me=1 / trellis=2 / 8x8dct=1 / cqm=0 / deadzone=21,11 / fast_pskip=0 / chroma_qp_offset=-2 / threads=18 / lookahead_threads=4 / sliced_threads=0 / nr=0 / decimate=1 / interlaced=0 / bluray_compat=0 / constrained_intra=0 / fgo=0 / bframes=4 / b_pyramid=2 / b_adapt=2 / b_bias=0 / direct=3 / weightb=1 / open_gop=0 / weightp=2 / keyint=240 / keyint_min=23 / scenecut=40 / intra_refresh=0 / rc_lookahead=40 / rc=2pass / mbtree=0 / bitrate=10397 / ratetol=1.0 / qcomp=0.70 / qpmin=0:0:0 / qpmax=69:69:69 / qpstep=4 / cplxblur=20.0 / qblur=0.5 / vbv_maxrate=50000 / vbv_bufsize=50000 / nal_hrd=none / filler=0 / ip_ratio=1.40 / pb_ratio=1.30 / aq=1:0.70 / aq-sensitivity=10.00 / aq-factor=1.00:1.00:1.00 / aq2=0 / aq3=0
Language : English
Default : Yes
Forced : No

Audio
ID : 2
Format : DTS
Format/Info : Digital Theater Systems
Mode : 16
Format settings, Endianness : Big
Codec ID : A_DTS
Duration : 1 h 39 min
Bit rate mode : Constant
Bit rate : 1 509 kb/s
Channel(s) : 6 channels
Channel positions : Front: L C R, Side: L R, LFE
Sampling rate : 48.0 kHz
Frame rate : 93.750 FPS (512 spf)
Bit depth : 24 bits
Compression mode : Lossy
Stream size : 1.05 GiB (13%)
Title : DTS 5.1
Language : Italian
Default : Yes
Forced : No

Text
ID : 3
Format : UTF-8
Codec ID : S_TEXT/UTF8
Codec ID/Info : UTF-8 Plain Text
Duration : 1 h 35 min
Bit rate : 68 b/s
Count of elements : 1295
Stream size : 47.9 KiB (0%)
Title : REGULAR
Language : Italian
Default : No
Forced : No

Menu
00:00:00.000 : en:00:00:00.000
00:10:56.656 : en:00:10:56.656
00:20:18.217 : en:00:20:18.217
00:24:26.215 : en:00:24:26.215
00:29:09.665 : en:00:29:09.665
00:39:35.498 : en:00:39:35.498
00:44:30.710 : en:00:44:30.710
00:54:13.417 : en:00:54:13.417
01:05:27.382 : en:01:05:27.382
01:13:24.567 : en:01:13:24.567
01:19:26.428 : en:01:19:26.428
01:28:39.481 : en:01:28:39.481




Screenshots

Natale a Londra: Dio Salvi la Regina (2016)

Natale a Londra: Dio Salvi la Regina (2016)

Natale a Londra: Dio Salvi la Regina (2016)