National Geographic - Taboo: Filthy Jobs (2012)

Posted By: Polik88
National Geographic - Taboo: Filthy Jobs (2012)

National Geographic - Taboo: Filthy Jobs (2012)
English | MP4 | 832x468 | AVC 2021 Kbps 25.000 fps | AAC 128 Kbps 48.0 khz | 44mn 51s | 691 MB
Genre: Documentary

The grimy, nasty filth nobody wants to be around is an everyday sight for these dirty job cleaners. In Minneapolis, a team of heavy-duty housecleaners tackles a truly filthy, foreclosed house. One of the most disgusting basements you'll ever see a laundry full of cat feces, an appalling fridge freezer and a backed-up toilet that would test even the strongest stomach.
General
Complete name : National.Geographic.Taboo.Filthy.Jobs.mp4
Format : MPEG-4
Format profile : Base Media
Codec ID : isom
File size : 691 MiB
Duration : 44mn 51s
Overall bit rate mode : Variable
Overall bit rate : 2 154 Kbps
Encoded date : UTC 2013-02-20 10:21:23
Tagged date : UTC 2013-02-20 10:21:23
Writing application : Lavf51.12.1

Video
ID : 1
Format : AVC
Format/Info : Advanced Video Codec
Format profile : High@L3.0
Format settings, CABAC : No
Format settings, ReFrames : 1 frame
Format settings, GOP : M=1, N=12
Codec ID : avc1
Codec ID/Info : Advanced Video Coding
Duration : 44mn 51s
Bit rate : 2 021 Kbps
Width : 832 pixels
Height : 468 pixels
Display aspect ratio : 16:9
Frame rate mode : Constant
Frame rate : 25.000 fps
Color space : YUV
Chroma subsampling : 4:2:0
Bit depth : 8 bits
Scan type : Progressive
Bits/(Pixel*Frame) : 0.208
Stream size : 648 MiB (94%)
Encoded date : UTC 2013-02-20 10:21:23
Tagged date : UTC 2013-02-20 10:21:23

Audio
ID : 2
Format : AAC
Format/Info : Advanced Audio Codec
Format profile : LC
Codec ID : 40
Duration : 44mn 50s
Bit rate mode : Variable
Bit rate : 128 Kbps
Channel(s) : 2 channels
Channel positions : Front: L R
Sampling rate : 48.0 KHz
Compression mode : Lossy
Stream size : 41.1 MiB (6%)
Encoded date : UTC 2013-02-20 10:21:23
Tagged date : UTC 2013-02-20 10:21:23

Screenshots

National Geographic - Taboo: Filthy Jobs (2012)

National Geographic - Taboo: Filthy Jobs (2012)

National Geographic - Taboo: Filthy Jobs (2012)

no mirrors please, Follow The Rules
Visit Polik88 Blog Here
no password