National Geographic - Taboo: Obsessions (2012)

Posted By: Polik88
National Geographic - Taboo: Obsessions (2012)

National Geographic - Taboo: Obsessions (2012)
English | MP4 | 832x464 | AVC 1852 Kbps 25.000 fps | AAC 128 Kbps 48.0 khz | 44mn 59s | 638 MB
Genre: Documentary

A love affair with balloons, a fetish for female bodybuilders, and a snuggle up to a shrunken head in bed… Taboo promises to be one of the strangest shows you'll see this year. Collectors reveal their obsessions, including London curiosity shop owner Viktor Wynd, whose store sells skeletons, alleged celebrity faeces and Russell Brand's hair to Jim's 'Noah's Ark' with 550 live animals, discover how some collectors' passions cross the line.
General
Complete name : National.Geographic.Taboo.Obsessions.mp4
Format : MPEG-4
Format profile : Base Media
Codec ID : isom
File size : 638 MiB
Duration : 44mn 59s
Overall bit rate mode : Variable
Overall bit rate : 1 984 Kbps
Encoded date : UTC 2013-01-22 02:24:24
Tagged date : UTC 2013-01-22 02:24:24

Video
ID : 1
Format : AVC
Format/Info : Advanced Video Codec
Format profile : High@L4.0
Format settings, CABAC : Yes
Format settings, ReFrames : 3 frames
Codec ID : avc1
Codec ID/Info : Advanced Video Coding
Duration : 44mn 59s
Bit rate : 1 852 Kbps
Maximum bit rate : 4 431 Kbps
Width : 832 pixels
Height : 464 pixels
Display aspect ratio : 16:9
Frame rate mode : Constant
Frame rate : 25.000 fps
Color space : YUV
Chroma subsampling : 4:2:0
Bit depth : 8 bits
Scan type : Progressive
Bits/(Pixel*Frame) : 0.192
Stream size : 596 MiB (93%)
Writing library : x264 core 66 r1092 60f4cd8
Encoding settings : cabac=1 / ref=3 / deblock=1:-1:-1 / analyse=0x3:0x113 / me=umh / subme=9 / psy_rd=1.1:0.0 / mixed_ref=0 / me_range=16 / chroma_me=0 / trellis=0 / 8x8dct=1 / cqm=0 / deadzone=21,11 / chroma_qp_offset=-2 / threads=3 / nr=0 / decimate=1 / mbaff=0 / bframes=3 / b_pyramid=0 / b_adapt=2 / b_bias=0 / direct=3 / wpredb=1 / keyint=250 / keyint_min=25 / scenecut=40(pre) / rc=2pass / bitrate=1852 / ratetol=1.0 / qcomp=0.60 / qpmin=10 / qpmax=51 / qpstep=4 / cplxblur=20.0 / qblur=0.5 / vbv_maxrate=25000 / vbv_bufsize=14000 / ip_ratio=1.40 / pb_ratio=1.30 / aq=1:1.00
Encoded date : UTC 2013-01-22 02:24:24
Tagged date : UTC 2013-01-22 02:25:24

Audio
ID : 2
Format : AAC
Format/Info : Advanced Audio Codec
Format profile : LC
Codec ID : 67
Duration : 44mn 59s
Bit rate mode : Variable
Bit rate : 128 Kbps
Maximum bit rate : 135 Kbps
Channel(s) : 2 channels
Channel positions : Front: L R
Sampling rate : 48.0 KHz
Compression mode : Lossy
Stream size : 41.3 MiB (6%)
Encoded date : UTC 2013-01-22 02:25:19
Tagged date : UTC 2013-01-22 02:25:24

Screenshots

National Geographic - Taboo: Obsessions (2012)

National Geographic - Taboo: Obsessions (2012)

National Geographic - Taboo: Obsessions (2012)

no mirrors please, Follow The Rules
Visit Polik88 Blog Here
no password