National Geographic - Nazi Megastructures: Season 2 (2014)

Posted By: Tutorial
National Geographic - Nazi Megastructures: Season 2 (2014)

National Geographic - Nazi Megastructures: Season 2 (2014)
DVDRip | 1024 x 576 | .MP4/AVC @ 1997 Kbps | 6x~44mn | English AAC 128 kbps, 2 channels | 4.10 GB
Genre: Documentary

In their quest for world domination, the Nazis built some of the biggest pieces of military hardware and malevolent technology in history, and created one of the most brutal paramilitary organisations the world has ever known. Over six unforgettable episodes, we examine the impact and uncover the hidden remains of Hitlers most ambitious megastructures hi-tech megaships, secret headquarters and weapons of mass destruction and we watch the unfolding horror of the SS and of Japans kamikaze suicide pilots. Witness the stories of the men and machines that changed warfare forever in the Nazi quest to conquer the world.
Part 1: V1: Hitler's Vengeance Missile
In retaliation for Allied bombing raids, Hitler ordered the development of the V1. The first cruise missile, it changed the face of war forever.

Part 2: Hitler's Siegfried Line
The campaign to breach Hitler's 400 mile-long Siegfried Line took more than six months and cost the American forces 140,000 casualties.

Part 3: The Wolf's Lair
A secret headquarters of concrete and steel is the heart of Hitler’s plans for domination and the key to a Nazi conspiracy - the Wolf’s Lair.

Part 4: Himmler's SS
In a quest for world domination, the Nazis built some of the biggest, deadliest pieces of military hardware and malevolent technology in history.

Part 5: Hitler's Megaships
The Bismarck and Tirpitz were battleships of record breaking proportions, ultimate status symbols of the Third Reich and hunted by the Allies.

Part 6: Kamikaze Suicide Bombers
As America closes in on Japan in 1944, the Japanese turn to desperate new tactics: killer planes and super torpedoes guided by human pilots.

General
Complete name : Nazi.Megastructures.Series.2.1of6.V1.Hitlers.Vengeance.Missile.mp4
Format : MPEG-4
Format profile : Base Media
Codec ID : isom
File size : 671 MiB
Duration : 44mn 1s
Overall bit rate mode : Variable
Overall bit rate : 2 130 Kbps
Encoded date : UTC 2016-06-14 13:16:22
Tagged date : UTC 2016-06-14 13:16:22
Writing application : Lavf51.12.1

Video
ID : 1
Format : AVC
Format/Info : Advanced Video Codec
Format profile : Main@L3.1
Format settings, CABAC : Yes
Format settings, ReFrames : 1 frame
Format settings, GOP : M=1, N=12
Codec ID : avc1
Codec ID/Info : Advanced Video Coding
Duration : 44mn 1s
Bit rate : 1 997 Kbps
Width : 1 024 pixels
Height : 576 pixels
Display aspect ratio : 16:9
Frame rate mode : Constant
Frame rate : 25.000 fps
Color space : YUV
Chroma subsampling : 4:2:0
Bit depth : 8 bits
Scan type : Progressive
Bits/(Pixel*Frame) : 0.135
Stream size : 629 MiB (94%)
Encoded date : UTC 2016-06-14 13:16:22
Tagged date : UTC 2016-06-14 13:16:22

Audio
ID : 2
Format : AAC
Format/Info : Advanced Audio Codec
Format profile : LC
Codec ID : 40
Duration : 44mn 0s
Bit rate mode : Variable
Bit rate : 128 Kbps
Channel(s) : 2 channels
Channel positions : Front: L R
Sampling rate : 48.0 KHz
Compression mode : Lossy
Stream size : 40.3 MiB (6%)
Encoded date : UTC 2016-06-14 13:16:22
Tagged date : UTC 2016-06-14 13:16:22
Screenshots

National Geographic - Nazi Megastructures: Season 2 (2014)

National Geographic - Nazi Megastructures: Season 2 (2014)

National Geographic - Nazi Megastructures: Season 2 (2014)

National Geographic - Nazi Megastructures: Season 2 (2014)

National Geographic - Nazi Megastructures: Season 2 (2014)

Welcome to my blog - daily update!

National Geographic - Nazi Megastructures: Season 2 (2014)