No Manifesto: A Film About Manic Street Preachers (2015)

Posted By: Tutorial
No Manifesto: A Film About Manic Street Preachers (2015)

No Manifesto: A Film About Manic Street Preachers (2015)
720p BluRay | 1280 x 720 | .MP4/AVC @ 3546 Kbps | 1h 35mn | English AAC 160 Kbps, 2 channels | 2.47 GB
Genre: Documentary

In 1991, the Manic Street Preachers planned to sell 16 million copies of their debut and split up. Many years, many hits and one big mystery later, this colourful band and its fans appear in a unique documentary that tells their full story.
Director: Elizabeth Marcus
Stars: James Dean Bradfield, Richey Edwards, Grant Foxon

More info: IMDB

General
Complete name : A.Film.About.Manic.Street.Preachers.mp4
Format : MPEG-4
Format profile : Base Media
Codec ID : isom
File size : 2.47 GiB
Duration : 1h 35mn
Overall bit rate mode : Variable
Overall bit rate : 3 710 Kbps
Encoded date : UTC 2015-02-19 09:03:55
Tagged date : UTC 2015-02-19 09:03:55
Writing application : Lavf51.12.1

Video
ID : 1
Format : AVC
Format/Info : Advanced Video Codec
Format profile : High@L4.1
Format settings, CABAC : No
Format settings, ReFrames : 1 frame
Format settings, GOP : M=1, N=12
Codec ID : avc1
Codec ID/Info : Advanced Video Coding
Duration : 1h 35mn
Bit rate : 3 546 Kbps
Width : 1 280 pixels
Height : 720 pixels
Display aspect ratio : 16:9
Frame rate mode : Constant
Frame rate : 23.976 fps
Color space : YUV
Chroma subsampling : 4:2:0
Bit depth : 8 bits
Scan type : Progressive
Bits/(Pixel*Frame) : 0.160
Stream size : 2.36 GiB (96%)
Encoded date : UTC 2015-02-19 09:03:55
Tagged date : UTC 2015-02-19 09:03:55

Audio
ID : 2
Format : AAC
Format/Info : Advanced Audio Codec
Format profile : LC
Codec ID : 40
Duration : 1h 35mn
Bit rate mode : Variable
Bit rate : 160 Kbps
Channel(s) : 2 channels
Channel positions : Front: L R
Sampling rate : 48.0 KHz
Compression mode : Lossy
Stream size : 109 MiB (4%)
Language : English
Encoded date : UTC 2015-02-19 09:03:55
Tagged date : UTC 2015-02-19 09:03:55
Screenshots

No Manifesto: A Film About Manic Street Preachers (2015)

No Manifesto: A Film About Manic Street Preachers (2015)

No Manifesto: A Film About Manic Street Preachers (2015)

No Manifesto: A Film About Manic Street Preachers (2015)

No Manifesto: A Film About Manic Street Preachers (2015)

Welcome to my blog - daily update!

No Manifesto: A Film About Manic Street Preachers (2015)