Paradigm Films - No Vietnamese Ever Called Me Nigger (1968)

Posted By: notbanned
SD / DVDRip
Paradigm Films - No Vietnamese Ever Called Me Nigger (1968)

Paradigm Films - No Vietnamese Ever Called Me Nigger (1968)
PDTV | 696x476 | .MKV/AVC @ 1800 Kbps | 1 h 7 min | 964 MiB
Audio: English AC3 192 kbps, 2 channels | Subs: None
Genre: Documentary

Filmed at an anti-war march from Harlem to the United Nations in 1967 on the occasion of Martin Luther King's speech at the U.N in which he questioned the disproportionate percentage of black soldiers in combat in Vietnam. The title is a quote misattributed to Mohammed Ali on why he refused to serve in the war. Four hundred thousand people participated in demonstrations in New York on that day. On-street interviews with black residents of Harlem are interlaced with the comments of three black soldiers who had recently returned from the war.

General
Unique ID : 180326329740396537554158298889214785525 (0x87A9967B6D5475BCBCCE80846C0477F5)
Complete name : No.Vietnamese.Ever.Called.Me.Nigger.PDTV.mkv
Format : Matroska
Format version : Version 4 / Version 2
File size : 964 MiB
Duration : 1 h 7 min
Overall bit rate : 1 995 kb/s

Video
ID : 1
Format : AVC
Format/Info : Advanced Video Codec
Format profile : High@L4.1
Format settings, CABAC : Yes
Format settings, ReFrames : 8 frames
Codec ID : V_MPEG4/ISO/AVC
Duration : 1 h 7 min
Bit rate : 1 800 kb/s
Width : 696 pixels
Height : 476 pixels
Display aspect ratio : 4:3
Original display aspect ratio : 4:3
Frame rate mode : Constant
Frame rate : 29.970 (30000/1001) FPS
Color space : YUV
Chroma subsampling : 4:2:0
Bit depth : 8 bits
Scan type : Progressive
Bits/(Pixel*Frame) : 0.181
Stream size : 871 MiB (90%)
Writing library : x264 core 146 r2538 121396c
Encoding settings : cabac=1 / ref=8 / deblock=1:-3:-3 / analyse=0x3:0x133 / me=umh / subme=10 / psy=1 / psy_rd=1.00:0.15 / mixed_ref=1 / me_range=32 / chroma_me=0 / trellis=2 / 8x8dct=1 / cqm=0 / deadzone=21,11 / fast_pskip=0 / chroma_qp_offset=-3 / threads=8 / lookahead_threads=2 / sliced_threads=0 / nr=0 / decimate=0 / interlaced=0 / bluray_compat=0 / constrained_intra=0 / bframes=10 / b_pyramid=2 / b_adapt=2 / b_bias=0 / direct=3 / weightb=1 / open_gop=0 / weightp=2 / keyint=300 / keyint_min=29 / scenecut=40 / intra_refresh=0 / rc_lookahead=60 / rc=2pass / mbtree=1 / bitrate=1800 / ratetol=3.0 / qcomp=0.60 / qpmin=0 / qpmax=69 / qpstep=4 / cplxblur=20.0 / qblur=0.5 / vbv_maxrate=14000 / vbv_bufsize=14000 / nal_hrd=none / filler=0 / ip_ratio=1.40 / aq=1:1.00
Default : Yes
Forced : No

Audio
ID : 2
Format : AC-3
Format/Info : Audio Coding 3
Format settings, Endianness : Big
Codec ID : A_AC3
Duration : 1 h 7 min
Bit rate mode : Constant
Bit rate : 192 kb/s
Channel(s) : 2 channels
Channel positions : Front: L R
Sampling rate : 48.0 kHz
Frame rate : 31.250 FPS (1536 spf)
Bit depth : 16 bits
Compression mode : Lossy
Stream size : 92.8 MiB (10%)
Language : English
Service kind : Complete Main
Default : Yes
Forced : No


Screenshots:

Paradigm Films - No Vietnamese Ever Called Me Nigger (1968)

Paradigm Films - No Vietnamese Ever Called Me Nigger (1968)

Paradigm Films - No Vietnamese Ever Called Me Nigger (1968)

Paradigm Films - No Vietnamese Ever Called Me Nigger (1968)