Tags
Language
Tags

Nobody (2021) [Extras only]

Posted By: Tavaz
1080p (FullHD) / BDRip IMDb
Nobody (2021) [Extras only]

Nobody (2021) [Extras only]
BluRay Remux | MKV | 1920x1080 | English | H264 @ 17472 kbps | AC-3 @ 192 kbps | 19 min 4 s | 2.44 GiB
Subtitles: Français, Español, Italiano, Nederlands, English, Português
Genre: Crime, Action, Thriller, Comedy

Hutch Mansell, a suburban dad, overlooked husband, nothing neighbor — a "nobody." When two thieves break into his home one night, Hutch's unknown long-simmering rage is ignited and propels him on a brutal path that will uncover dark secrets he fought to leave behind.

Just a Nobody.mkv (1.7 GB)
Hutch Hits Hard.mkv (507.2 MB)
Breaking Down the Action.mkv (2.4 GB)



General
Unique ID : 25728693159730815143338655255243573351 (0x135B2A82D177075E3342E803C058C867)
Complete name : ./Breaking Down the Action.mkv
Format : Matroska
Format version : Version 4 / Version 2
File size : 2.44 GiB
Duration : 19 min 4 s
Overall bit rate mode : Variable
Overall bit rate : 18.3 Mb/s
Encoded date : UTC 2021-06-17 04:05:28
Writing application : mkvmerge v40.0.0 ('Old Town Road + Pony') 64-bit
Writing library : libebml v1.3.9 + libmatroska v1.5.2

Video
ID : 1
Format : AVC
Format/Info : Advanced Video Codec
Format profile : High@L4.1
Format settings : CABAC / 4 Ref Frames
Format settings, CABAC : Yes
Format settings, RefFrames : 4 frames
Codec ID : V_MPEG4/ISO/AVC
Duration : 19 min 4 s
Bit rate mode : Variable
Bit rate : 17.5 Mb/s
Maximum bit rate : 35.0 Mb/s
Width : 1 920 pixels
Height : 1 080 pixels
Display aspect ratio : 16:9
Frame rate mode : Constant
Frame rate : 23.976 (24000/1001) FPS
Color space : YUV
Chroma subsampling : 4:2:0
Bit depth : 8 bits
Scan type : Progressive
Bits/(Pixel*Frame) : 0.351
Stream size : 2.33 GiB (95%)
Title : MPEG-4 AVC Video / 17908 kbps / 1080p / 23.976 fps / 16:9 / High Profile 4.1
Default : Yes
Forced : No

Audio
ID : 2
Format : AC-3
Format/Info : Audio Coding 3
Format settings, Endianness : Big
Codec ID : A_AC3
Duration : 19 min 4 s
Bit rate mode : Constant
Bit rate : 192 kb/s
Channel(s) : 2 channels
Channel positions : Front: L R
Sampling rate : 48.0 kHz
Frame rate : 31.250 FPS (1536 SPF)
Bit depth : 16 bits
Compression mode : Lossy
Stream size : 26.2 MiB (1%)
Title : Dolby Digital Audio / 2.0 / 48 kHz / 192 kbps
Language : English
Service kind : Complete Main
Default : Yes
Forced : No

Text #1
ID : 3
Format : PGS
Codec ID : S_HDMV/PGS
Codec ID/Info : Picture based subtitle format used on BDs/HD-DVDs
Duration : 18 min 59 s
Bit rate : 89.1 kb/s
Count of elements : 806
Stream size : 12.1 MiB (0%)
Language : English
Default : No
Forced : No

Text #2
ID : 4
Format : PGS
Codec ID : S_HDMV/PGS
Codec ID/Info : Picture based subtitle format used on BDs/HD-DVDs
Duration : 19 min 2 s
Bit rate : 77.9 kb/s
Count of elements : 828
Stream size : 10.6 MiB (0%)
Language : Dutch
Default : No
Forced : No

Text #3
ID : 5
Format : PGS
Codec ID : S_HDMV/PGS
Codec ID/Info : Picture based subtitle format used on BDs/HD-DVDs
Duration : 19 min 2 s
Bit rate : 73.4 kb/s
Count of elements : 828
Stream size : 9.99 MiB (0%)
Language : French
Default : No
Forced : No

Text #4
ID : 6
Format : PGS
Codec ID : S_HDMV/PGS
Codec ID/Info : Picture based subtitle format used on BDs/HD-DVDs
Duration : 19 min 2 s
Bit rate : 81.3 kb/s
Count of elements : 828
Stream size : 11.1 MiB (0%)
Language : Italian
Default : No
Forced : No

Text #5
ID : 7
Format : PGS
Codec ID : S_HDMV/PGS
Codec ID/Info : Picture based subtitle format used on BDs/HD-DVDs
Duration : 19 min 2 s
Bit rate : 77.7 kb/s
Count of elements : 828
Stream size : 10.6 MiB (0%)
Title : Brazilian
Language : Portuguese
Default : No
Forced : No

Text #6
ID : 8
Format : PGS
Codec ID : S_HDMV/PGS
Codec ID/Info : Picture based subtitle format used on BDs/HD-DVDs
Duration : 19 min 2 s
Bit rate : 73.9 kb/s
Count of elements : 828
Stream size : 10.1 MiB (0%)
Language : Portuguese
Default : No
Forced : No

Text #7
ID : 9
Format : PGS
Codec ID : S_HDMV/PGS
Codec ID/Info : Picture based subtitle format used on BDs/HD-DVDs
Duration : 19 min 2 s
Bit rate : 79.2 kb/s
Count of elements : 820
Stream size : 10.8 MiB (0%)
Title : Castilian
Language : Spanish
Default : No
Forced : No

Text #8
ID : 10
Format : PGS
Codec ID : S_HDMV/PGS
Codec ID/Info : Picture based subtitle format used on BDs/HD-DVDs
Duration : 19 min 2 s
Bit rate : 77.7 kb/s
Count of elements : 820
Stream size : 10.6 MiB (0%)
Title : Latin American
Language : Spanish
Default : No
Forced : No

Menu
00:00:00.000 : en:Bus Fight
00:05:29.371 : en:Home Invasion
00:09:47.170 : en:Car Chase
00:12:58.778 : en:Tool and Die





Nobody (2021) [Extras only]


Nobody (2021) [Extras only]


Nobody (2021) [Extras only]


Nobody (2021) [Extras only]


Nobody (2021) [Extras only]