Please register here if you want to download anything!

If domain in your address bar is different from the list below
PLEASE LEAVE THAT SITE IMMEDIATELY
❗IT'S A DANGEROUS FAKE❗



Spicy Magazines for Men! ;-)

Nynke (2001)

Posted By: RSU75
SD / DVD IMDb
Nynke (2001)

Nynke (2001)
DVD Video | PAL 16:9 | 720x576 | 1hr 47mn | 3.73 Gb
DVDRip | MKV | AVC 704x540, ~ 1.7 Mbps | 1hr 47mn | 1.62 GB
Frisian: AC3, 6 ch, 448 kbps
Subtitles: English, Dutch (Nederlands)
Genre: Biography, Drama, History
IMDB Rating: 7.0/10 (474 votes)


Director: Pieter Verhoeff
Writer: Pieter Verhoeff
Stars: Monic Hendrickx, Jeroen Willems, Peter Tuinman

Costume drama about the turbulent marriage of Sjoukje Bokma de Boer (best-known under her writer's pseudonym Nynke van Hichtum) to the Socialist leader Pieter Jelles Troelstra at the start of the last century.

Extras DVD:
- None




Title: Nynke.2001.D5
Size: 3.73 Gb ( 3 910 142,00 KBytes ) - DVD-5
Enabled regions: 1, 2, 3, 4, 5, 6

VTS_01 :
Play Length: 00:00:00
Video: PAL 16:9 (720x576) VBR, Auto Letterboxed
Audio:
Nederlands (Dolby AC3, 2 ch)
Subtitles:
English
English
Not specified

VTS_02 :
Play Length: 00:00:16
Video: PAL 16:9 (720x576) VBR, Auto Letterboxed
Audio:
Nederlands (Dolby AC3, 2 ch)
Subtitles:
English
English

VTS_03 :
Play Length: 00:00:15
Video: PAL 16:9 (720x576) VBR, Auto Letterboxed
Audio:
Nederlands (Dolby AC3, 2 ch)
Subtitles:
English
English

VTS_04 :
Play Length: 01:47:58+{01:47:58}+{01:47:58}+{01:47:58}
Video: PAL 16:9 (720x576) VBR, Auto Letterboxed
Audio:
Frisian (Dolby AC3, 6 ch)
Subtitles:
English
Nederlands





General
Unique ID : 213096312296945820450921145552026192029 (0xA050DB5D15D2ED77803087C2AE3BC89D)
Complete name : F:\Nynke.2001.Dr\Nynke.2001.Dr.mkv
Format : Matroska
Format version : Version 4 / Version 2
File size : 1.62 GiB
Duration : 1 h 47 min
Overall bit rate : 2 153 kb/s
Movie name : Release RSU75
Encoded date : UTC 2019-08-05 11:30:13
Writing application : mkvmerge v6.6.0 ('The Edge Of The In Between') built on Dec 1 2013 17:55:00
Writing library : libebml v1.3.0 + libmatroska v1.4.1

Video
ID : 1
Format : AVC
Format/Info : Advanced Video Codec
Format profile : High@L4.1
Format settings : CABAC / 4 Ref Frames
Format settings, CABAC : Yes
Format settings, ReFrames : 4 frames
Codec ID : V_MPEG4/ISO/AVC
Duration : 1 h 47 min
Bit rate : 1 700 kb/s
Width : 704 pixels
Height : 540 pixels
Display aspect ratio : 1.85:1
Frame rate mode : Constant
Frame rate : 25.000 FPS
Color space : YUV
Chroma subsampling : 4:2:0
Bit depth : 8 bits
Scan type : Progressive
Bits/(Pixel*Frame) : 0.179
Stream size : 1.25 GiB (77%)
Writing library : x264 core 148 r2643 5c65704
Encoding settings : cabac=1 / ref=4 / deblock=1:0:0 / analyse=0x3:0x113 / me=umh / subme=8 / psy=1 / psy_rd=1.00:0.00 / mixed_ref=1 / me_range=24 / chroma_me=1 / trellis=1 / 8x8dct=1 / cqm=0 / deadzone=21,11 / fast_pskip=1 / chroma_qp_offset=-2 / threads=3 / lookahead_threads=1 / sliced_threads=0 / nr=0 / decimate=1 / interlaced=0 / bluray_compat=0 / constrained_intra=0 / bframes=3 / b_pyramid=0 / b_adapt=2 / b_bias=0 / direct=3 / weightb=1 / open_gop=0 / weightp=2 / keyint=250 / keyint_min=25 / scenecut=40 / intra_refresh=0 / rc_lookahead=40 / rc=abr / mbtree=1 / bitrate=1700 / ratetol=1.0 / qcomp=0.60 / qpmin=10 / qpmax=51 / qpstep=4 / ip_ratio=1.41 / aq=1:1.00
Language : English
Default : Yes
Forced : No

Audio
ID : 2
Format : AC-3
Format/Info : Audio Coding 3
Commercial name : Dolby Digital
Codec ID : A_AC3
Duration : 1 h 47 min
Bit rate mode : Constant
Bit rate : 448 kb/s
Channel(s) : 6 channels
Channel layout : L R C LFE Ls Rs
Sampling rate : 48.0 kHz
Frame rate : 31.250 FPS (1536 SPF)
Bit depth : 16 bits
Compression mode : Lossy
Stream size : 346 MiB (21%)
Language : Frisian
Service kind : Complete Main
Default : Yes
Forced : No

Text #1
ID : 3
Format : VobSub
Muxing mode : zlib
Codec ID : S_VOBSUB
Codec ID/Info : Picture based subtitle format used on DVDs
Language : English
Default : Yes
Forced : No

Text #2
ID : 4
Format : VobSub
Muxing mode : zlib
Codec ID : S_VOBSUB
Codec ID/Info : Picture based subtitle format used on DVDs
Language : Dutch
Default : No
Forced : No

Menu
00:00:00.000 : en:Chapter 01
00:14:10.680 : en:Chapter 02
00:20:41.280 : en:Chapter 03
00:35:51.960 : en:Chapter 04
00:49:03.040 : en:Chapter 05
00:55:43.240 : en:Chapter 06
01:08:59.360 : en:Chapter 07
01:16:31.560 : en:Chapter 08
01:23:27.440 : en:Chapter 09
01:30:16.000 : en:Chapter 10
01:38:18.000 : en:Chapter 11
01:44:35.760 : en:Chapter 12




Screenshots DVD (click to enlarge to original size):

Nynke (2001)

Nynke (2001)

Nynke (2001)

Nynke (2001)

Nynke (2001)



Screenshots DVDRip (click to enlarge to original size):

Nynke (2001)



Thanks to original uploader of DVD version


–––––––––––––––––––––––––––––––––––––––-
>>> "Biography" <<<OR >>> "DVD Video" <<<OR >>> "DVDRip" <<<
–––––––––––––––––––––––––––––––––––––––-
>>> Visit Blog RSU75 Here <<<
–––––––––––––––––––––––––––––––––––––––-