ORF - Universum: The Lynx Liaison (2010)

Posted By: notbanned
ORF - Universum: The Lynx Liaison (2010)

ORF - Universum: The Lynx Liaison (2010)
HDTV | 1280x720 | .MKV/AVC @ 4000 Kbps | 46mn 3s | Audio: English AC3 384 kbps, 6 channels | Subs: None | 1.41 GiB
Genre: Documentary

With large tufted ears, a short tail and a trusting look, one could almost believe that lynxes are just big cats, when in fact they are wild and untamed. This is the story of a hard earned friendship between a ranger called Milos Majda at the Mala Fatra National Park in Slovakia and two small lynxes fresh from the zoo. It is hoped the lynxes will return to the wild. Milos and filmmaker Tomas Hulik follow the two-year journey of the lynx siblings from their warm nursery back into the wilderness.


General
Unique ID : 236437019653803849329242394149469875168 (0xB1E01D15A135B62181F9DE3BD1ECEBE0)
Complete name : ORF.The.Lynx.Liaison.mkv
Format : Matroska
Format version : Version 4 / Version 2
File size : 1.41 GiB
Duration : 46mn 3s
Overall bit rate : 4 385 Kbps
Movie name : ORF.The.Lynx.Liaison.HDTV.720p.x264.MVGroup.Forum.mkv
Encoded date : UTC 2013-12-28 19:50:41
Writing application : mkvmerge v6.6.0 ('The Edge Of The In Between') built on Dec 1 2013 17:55:00
Writing library : libebml v1.3.0 + libmatroska v1.4.1

Video
ID : 1
Format : AVC
Format/Info : Advanced Video Codec
Format profile : High@L4.1
Format settings, CABAC : Yes
Format settings, ReFrames : 5 frames
Codec ID : V_MPEG4/ISO/AVC
Duration : 46mn 3s
Bit rate : 4 000 Kbps
Width : 1 280 pixels
Height : 720 pixels
Display aspect ratio : 16:9
Frame rate : 25.000 fps
Color space : YUV
Chroma subsampling : 4:2:0
Bit depth : 8 bits
Scan type : Progressive
Bits/(Pixel*Frame) : 0.174
Stream size : 1.26 GiB (89%)
Writing library : x264 core 115 r1995 c1e60b9
Encoding settings : cabac=1 / ref=5 / deblock=1:-2:-1 / analyse=0x3:0x133 / me=umh / subme=7 / psy=1 / psy_rd=1.00:0.00 / mixed_ref=1 / me_range=16 / chroma_me=1 / trellis=1 / 8x8dct=1 / cqm=0 / deadzone=21,11 / fast_pskip=0 / chroma_qp_offset=-2 / threads=16 / sliced_threads=0 / nr=0 / decimate=0 / interlaced=0 / bluray_compat=0 / constrained_intra=0 / bframes=3 / b_pyramid=2 / b_adapt=1 / b_bias=0 / direct=3 / weightb=1 / open_gop=0 / weightp=2 / keyint=250 / keyint_min=25 / scenecut=40 / intra_refresh=0 / rc_lookahead=60 / rc=2pass / mbtree=1 / bitrate=4000 / ratetol=1.0 / qcomp=0.60 / qpmin=0 / qpmax=69 / qpstep=4 / cplxblur=20.0 / qblur=0.5 / vbv_maxrate=20000 / vbv_bufsize=20000 / nal_hrd=none / ip_ratio=1.40 / aq=1:1.00
Language : Chinese
Default : Yes
Forced : No

Audio
ID : 2
Format : AC-3
Format/Info : Audio Coding 3
Mode extension : CM (complete main)
Format settings, Endianness : Big
Codec ID : A_AC3
Duration : 46mn 3s
Bit rate mode : Constant
Bit rate : 384 Kbps
Channel(s) : 6 channels
Channel positions : Front: L C R, Side: L R, LFE
Sampling rate : 48.0 KHz
Bit depth : 16 bits
Compression mode : Lossy
Delay relative to video : 323ms
Stream size : 126 MiB (9%)
Title : English
Language : English
Default : Yes
Forced : No


Screenshots:

ORF - Universum: The Lynx Liaison (2010)

ORF - Universum: The Lynx Liaison (2010)

ORF - Universum: The Lynx Liaison (2010)

ORF - Universum: The Lynx Liaison (2010)