October (1928)

Posted By: Tavaz
October (1928)

October (1928)
HDTV | MKV | 720x404 | French | H264 @ 672 kbps | AAC @ 144 kbps | 51 min 53 s | 303 MiB
Genre: Drama, History

Petrograd, octobre 1917 : les Bolcheviks prennent le pouvoir. 10 jours qui ébranlèrent le monde…



Octobre.1917.Les.Artistes.De.La.Revolution.DOC.FRENCH.HDTV.x264-ABiTBOL.mkv (303.5 MB)



General
Unique ID : 86523169951677655284371365370522552149 (0x4117C1A2BB1270D9F48376876B30C755)
Complete name : ./Octobre.1917.Les.Artistes.De.La.Revolution.DOC.FRENCH.HDTV.x264-ABiTBOL.mkv
Format : Matroska
Format version : Version 4 / Version 2
File size : 303 MiB
Duration : 51 min 53 s
Overall bit rate : 818 kb/s
Encoded date : UTC 2017-11-12 16:21:10
Writing application : mkvmerge v7.8.0 ('River Man') 64bit built on Mar 28 2015 07:20:28
Writing library : libebml v1.3.1 + libmatroska v1.4.2

Video
ID : 1
Format : AVC
Format/Info : Advanced Video Codec
Format profile : High@L3.1
Format settings : CABAC / 5 Ref Frames
Format settings, CABAC : Yes
Format settings, RefFrames : 5 frames
Codec ID : V_MPEG4/ISO/AVC
Duration : 51 min 53 s
Bit rate : 672 kb/s
Width : 720 pixels
Height : 404 pixels
Display aspect ratio : 16:9
Frame rate mode : Constant
Frame rate : 25.000 FPS
Color space : YUV
Chroma subsampling : 4:2:0
Bit depth : 8 bits
Scan type : Progressive
Bits/(Pixel*Frame) : 0.092
Stream size : 250 MiB (82%)
Writing library : x264 core 146
Encoding settings : cabac=1 / ref=5 / deblock=1:0:0 / analyse=0x3:0x113 / me=umh / subme=8 / psy=1 / psy_rd=1.00:0.00 / mixed_ref=1 / me_range=16 / chroma_me=1 / trellis=1 / 8x8dct=1 / cqm=0 / deadzone=21,11 / fast_pskip=1 / chroma_qp_offset=-2 / threads=3 / lookahead_threads=1 / sliced_threads=0 / nr=0 / decimate=1 / interlaced=0 / bluray_compat=0 / constrained_intra=0 / bframes=3 / b_pyramid=2 / b_adapt=2 / b_bias=0 / direct=3 / weightb=1 / open_gop=0 / weightp=2 / keyint=250 / keyint_min=25 / scenecut=40 / intra_refresh=0 / rc_lookahead=50 / rc=crf / mbtree=1 / crf=21.0 / qcomp=0.60 / qpmin=0 / qpmax=69 / qpstep=4 / ip_ratio=1.40 / aq=1:1.00
Default : Yes
Forced : No
Color range : Limited
Matrix coefficients : BT.709

Audio
ID : 2
Format : AAC
Format/Info : Advanced Audio Codec
Format profile : LC
Codec ID : A_AAC-2
Duration : 51 min 53 s
Bit rate : 144 kb/s
Channel(s) : 2 channels
Channel positions : Front: L R
Sampling rate : 48.0 kHz
Frame rate : 46.875 FPS (1024 SPF)
Compression mode : Lossy
Delay relative to video : 9 ms
Stream size : 53.1 MiB (18%)
Language : French
Default : Yes
Forced : No





October (1928)


October (1928)


October (1928)


October (1928)


October (1928)